ML
     
  Уважаемый Гость!
Вы можете поддержать проект и зарегистрироваться у наших партнеров - онлайн-стратегия MyLands. При регистрации в игре Вы получите код, который сможете активировать после регистрации на pirat.ca и получить 1000 дублонов.

Ваш код:
cc3be08b7507661c03e0a2f582d0da3a659ea55a
 
     

Игра / The Game (Серии: 1-6 из 6) (Toby Whithouse / Тоби Уитхаус) [2014, триллер, драма, шпионский, WEB-DLRip] MVO (ViruseProject)

Ответить на тему
 
Автор
Сообщение

Пост 15-Ноя-2014 00:58

[Q] 

UrbanVampire

Корсар

Игра / The Game
Минисериал, эпизоды 1-6 из 6
Год выпуска: 2014
Страна: Великобритания, BBC
Жанр: триллер, драма, шпионский
Продолжительность: 6 серий по ~00:58
Перевод: Профессиональный многоголосый закадровый (ViruseProject)
Субтитры: Русские (CSS), английские
Режиссёр: Toby Whithouse / Тоби Уитхаус
В ролях: Tom Hughes / Том Хьюз, Brian Cox / Брайан Кокс, Paul Ritter / Пол Риттер, Shaun Dooley / Шон Дули, Chloe Pirrie / Хлои Пирри, Victoria Hamilton / Виктория Гамильтон, Jonathan Aris / Джонатан Арис, Judy Parfitt / Джуди Парфит
Описание: Глава британской контрразведки МИ-5, известный под именем "Папочка" (Брайан Кокс), создает комитет для проверки полученной от перебежчика Аркадия Малинова информации о существовании проводимой на территории Великобритании операции КГБ под названием "Стекло". В комитет вошли карьерист Бобби Уотерхауз (Пол Риттер), представитель спецотдела полиции Джим Фенчёрч (Пол Дули), специалист по прослушке Алан (Джонатан Арис), его супруга, Сара Монтаг (Виктория Гамильтон), специалист по поведенческому анализу, и Джо Ламбэ (Том Хьюз), агент, недавно проваливший задание в Польше.
Новый шпионский детектив от Тоби Уитхауса (Быть человеком, Доктор Кто), прекрасно передающий атмосферу "холодной войны" начала 70х годов 20го века.

Качество: WEB-DLRip
Формат: AVI
Видео кодек: XviD
Аудио кодек: MP3
Видео: Xvid 720x400 25fps ~1 600 Kbps ~0.21 bpf
Аудио Rus: MP3 48000Hz stereo, 2 канала 128kbps
Аудио Eng: MP3 48000Hz stereo, 2 канала 128kbps
Доп.информация: Это серии с iTunes, каждая примерно на 6 минут длиннее варианта, показанного по TV.
ВНИМАНИЕ! Раздача ведется путем добавления новых серий!
График пополнения - примерно 1 серия в неделю. В первую очередь график зависит от появления исходников с iTunes в свободном доступе.
Закадровое озвучание: Анастасия Домнина, Дмитрий Кравченко, Дмитрий Иванов
Перевод: Евгений Шаров
Редактор текста Анна Марченко
Сведение звука, монтаж: Дмитрий Иванов
Работа с видео: Евгений Шаров
Перевод стихотворения Хьюза Мирнза в 1й серии: Гурвич Владимир Александрович
General
Complete name : D:\_DVDrip\The Game\The.Game.s01.WEB-DLrip.rus.MVO.ViruseProject\The.Game.s01e01.WEB-DLrip.rus.MVO.ViruseProject.avi
Format : AVI
Format/Info : Audio Video Interleave
File size : 744 MiB
Duration : 59mn 7s
Overall bit rate : 1 759 Kbps
Movie name : The Gamge / Игра эпизод 1
Writing application : VirtualDubMod 1.5.10.2 (build 2540/release)
Copyright : ViruseProject
Video
ID : 0
Format : MPEG-4 Visual
Format profile : Advanced [email protected]
Format settings, BVOP : Yes
Format settings, QPel : No
Format settings, GMC : No warppoints
Format settings, Matrix : Default (H.263)
Codec ID : XVID
Codec ID/Hint : XviD
Duration : 59mn 7s
Bit rate : 1 621 Kbps
Width : 720 pixels
Height : 400 pixels
Display aspect ratio : 16:9
Frame rate : 25.000 fps
Color space : YUV
Chroma subsampling : 4:2:0
Bit depth : 8 bits
Scan type : Progressive
Compression mode : Lossy
Bits/(Pixel*Frame) : 0.225
Stream size : 686 MiB (92%)
Writing library : XviD 1.2.1 (UTC 2008-12-04)
Audio
ID : 1
Format : MPEG Audio
Format version : Version 1
Format profile : Layer 3
Mode : Joint stereo
Mode extension : MS Stereo
Codec ID : 55
Codec ID/Hint : MP3
Duration : 59mn 7s
Bit rate mode : Constant
Bit rate : 128 Kbps
Channel count : 2 channels
Sampling rate : 48.0 KHz
Compression mode : Lossy
Stream size : 54.1 MiB (7%)
Alignment : Aligned on interleaves
Interleave, duration : 40 ms (1.00 video frame)
Interleave, preload duration : 504 ms
Language : Russian
[img][/img]
Download / Скачать

Хотите скачать бесплатно? Зарегистрируйтесь на сайте (ссылка на регистрацию). Pirat.ca - самый быстрый торрент трекер в рунете!

Как скачивать  ·   Что такое торрент  ·   Рейтинг и ограничения



Последний раз редактировалось: UrbanVampire (2015-02-18 23:47), всего редактировалось 19 раз(а)

UrbanVampire ®

Корсар

1077

Пост 15-Ноя-2014 01:49 (спустя 51 минута)

[Q] 

проблемы с раздачей решены, материал вновь доступен. приношу свои извинения за задержку.
[Профиль]  [ЛС] 

AnastasWolf

3476

Пост 15-Ноя-2014 09:48 (спустя 7 часов)

[Q] 

А где же сэмпл и IMDb?

_________________
[Профиль]  [ЛС] 

UrbanVampire ®

Корсар

1077

Пост 15-Ноя-2014 12:21 (спустя 2 часа 32 минуты)

[Q] 

AnastasWolf, сэмпл вверху, в строчке "Перевод".
IMDB и КиноПоиск добавлю чуть попозже.
[Профиль]  [ЛС] 

UrbanVampire ®

Корсар

1077

Пост 14-Дек-2014 13:20 (спустя 29 дней)

[Q] 

добавлена 2я серия
[Профиль]  [ЛС] 

viktor41

Шкипер

Пост 14-Дек-2014 19:38 (спустя 6 часов)

[Q] 

UrbanVampire, Спасибочки !
[Профиль]  [ЛС] 

UrbanVampire ®

Корсар

1077

Пост 29-Дек-2014 10:41 (спустя 14 дней)

[Q] 

добавлена 3я серия.
[Профиль]  [ЛС] 

dambrina

Флибустьер

Пост 06-Янв-2015 18:29 (спустя 8 дней)

[Q] 

Спасибо!!!
[Профиль]  [ЛС] 

[email protected]ex.ru

Штурман

Пост 07-Янв-2015 19:09 (спустя 1 день)

[Q] 

Ну и как сериал ?
[Профиль]  [ЛС] 

kotafanas

Морской Волк

95

Пост 17-Янв-2015 16:45 (спустя 9 дней)

[Q] 

В принципе не плохо.... одно накаляет: неужели все шпионы были такие же тормознутые как и в этом сериале??? порой они там сидят на лавках с газетой и думаешь пиЧец какой то, в общем мне кажется сериал постороен на глупых стереотипах о шпионах.... Хотя м.б они в Британии реально такие упоротые ))) Пока смотрю. Лови бочку

_________________



[Профиль]  [ЛС] 

blackmag

Шкипер

Пост 21-Янв-2015 02:17 (спустя 3 дня)

[Q] 

интересно, но тоже как-то наигранно
[Профиль]  [ЛС] 

kichman

Лоцман

Пост 17-Фев-2015 20:16 (спустя 27 дней)

[Q] 

КОГДА ВЫЙДЕТ ПОСЛЕДНЯЯ СЕРИЯ??????
[Профиль]  [ЛС] 

BraionServ1

Гроза морей

Пост 18-Фев-2015 17:30 (спустя 21 час)

[Q] 

Уже столько наснимали этих Шпайдер сериалов, чтонибудь по новее придумали
[Профиль]  [ЛС] 

Пост 19-Фев-2015 11:36 (спустя 18 часов)

Топик был перенесен из форума Сериалы в эфире в форум Зарубежные сериалы
Андря
 

янка-сан

Гроза морей

Пост 18-Дек-2015 21:44 (спустя 10 месяцев)

[Q] 

спасибо Лови бочку
[Профиль]  [ЛС] 
Показать сообщения:    
Ответить на тему

Текущее время: Сегодня 05:08

Часовой пояс: GMT + 4



Вы не можете начинать темы
Вы не можете отвечать на сообщения
Вы не можете редактировать свои сообщения
Вы не можете удалять свои сообщения
Вы не можете голосовать в опросах
Вы не можете прикреплять файлы к сообщениям
Вы не можете скачивать файлы

▼ Вниз