ML
     
  Уважаемый Гость!
Вы можете поддержать проект и зарегистрироваться у наших партнеров - онлайн-стратегия MyLands. При регистрации в игре Вы получите код, который сможете активировать после регистрации на pirat.ca и получить 1000 дублонов.

Ваш код:
5f4e94775bc0501caff7b254e79328d304c817d9
 
     

Ставка больше, чем жизнь / Stawka większa niż życie [серии 1-18 из 18] (Януш Моргенштерн / Janusz Morgenstern ...) [1968, Военный, Приключения, HDTV]

Ответить на тему
 
Автор
Сообщение

Пост 15-Дек-2014 19:31

[Q] 

naryshev

Флибустьер

Ставка больше, чем жизнь / Stawka większa niż życie -- Год выпуска: 1968
Жанр: Военный, Приключения
страна Польша
Перевод: Двухголосый закадровый, профессиональный
Язык: польский, русский
Режиссер: Януш Моргенштерн / Janusz Morgenstern, Рышард Плуциньский / Ryszard Plucinski, Анджей Кониц / Andrzej Konic-Актеры: Станислав Микульский, Януш Дзюбиньский, Хенрик Бонк, Тадеуш Бартосик, Анджей Богуцкий, Янина Бороньская, Барбара Брыльская, Барбара Бурская, Северин Бутрым, Януш Быльчиньский, Тадеуш Бялощиньский, Ежи Вальчак, Мечислав Васьковский, Люцина Винницкая, Эва Висьневская, Мечислав Войт, Чеслав Воллейко, Тадеуш Гвяздовский, Веньчислав Глиньский, Игнацы Гоголевский, Виктор Гротович, и др.
-Описание фильма:
Польский приключенческий сериал о работе поляка Станислава Колицкого в качестве советского разведчика во время второй мировой войны.
1941 год. Станислав Колицкий бежит из фашистского концлагеря и переходит советскую границу, чтобы предупредить о концентрации немецких войск вдоль рубежей СССР. Во время допроса в НКВД он говорит, что готов сражаться с общим врагом. Станислав становится агентом разведки и под именем немецкого офицера Ганса Клосса отправляется в оккупированную Польшу…
-Продолжительность: ~ 55mm
Код:
1. Я знаю, кто ты (Wiem, kim jesteś)
2. Отель «Эксельсиор» (Hotel Excelsior)
3. Совершенно секретно (Ściśle tajne)
4. Кафе Розы (Café Rose)
5. Последний шанс (Ostatnia szansa)
6. Железный Крест (Żelazny Krzyż)
7. Двойной нельсон (Podwójny nelson)
8. На грани провала (Большой провал) (Wielka wsypa)
9. Гениальный план полковника Крафта (Genialny plan pułkownika Krafta)
10. Именем Республики (W imieniu Rzeczypospolitej)
11. Пароль (Hasło)
12. Измена (Zdrada)
13. Без инструкций (Bez instrukcji)
14. Эдита (Edyta)
15. Осада (Oblężenie)
16. Операция «Дубовый лист» (Akcja «Liść dębu»)
17. Встреча (Spotkanie)
18. Разыскивается группенфюрер Вольф (Poszukiwany Gruppenführer Wolf)
1, 3 - 8 серии:
Видеокодек: MPEG-4 AVC/H.264
Битрейт видео: ~ 7300 kb/s
Размер кадра: 1920х1080 (16:9)
Аудио 1 Pol: AC-3, 2 channels, 192 kbps, 48 kHz - оригинал
Аудио 2 Rus: AC-3, 2 channels, 192 kbps, 48 kHz - двухголосый закадровый
Код:
Общее
Уникальный идентификатор                 : 216359721562293689073258026606807135025 (0xA2C55DDCE1449A85B6267F8EAE7AB331)
Полное имя                               : E:\Фильмы\Ставка больше, чем жизнь (Stawka wieksza niz zycie) (1968) (HDTV [EBE], 720p, MKV)\01 - Stawka wieksza niz zycie [ebe].mkv
Формат                                   : Matroska
Версия формата                           : Version 4 / Version 2
Размер файла                             : 2,99 Гбайт
Продолжительность                        : 54 м.
Общий поток                              : 7802 Кбит/сек
Дата кодирования                         : UTC 2014-12-12 14:34:11
Программа кодирования                    : mkvmerge v7.3.0 ('Nouages') 64bit built on Oct 22 2014 18:53:34
Библиотека кодирования                   : libebml v1.3.0 + libmatroska v1.4.1
Видео
Идентификатор                            : 1
Формат                                   : AVC
Формат/Информация                        : Advanced Video Codec
Профиль формата                          : [email protected]
Параметр CABAC формата                   : Да
Параметр ReFrames формата                : 4 кадра
Идентификатор кодека                     : V_MPEG4/ISO/AVC
Продолжительность                        : 54 м.
Битрейт                                  : 7263 Кбит/сек
Ширина                                   : 1920 пикселей
Высота                                   : 1080 пикселей
Соотношение сторон                       : 16:9
Режим частоты кадров                     : Постоянный
Частота кадров                           : 25,000 кадров/сек
Цветовое пространство                    : YUV
Субдискретизация насыщенности            : 4:2:0
Битовая глубина                          : 8 бит
Тип развёртки                            : Чересстрочная
Порядок развёртки                        : Верхнее поле первое
Бит/(Пиксели*Кадры)                      : 0.140
Размер потока                            : 2,78 Гбайт (93%)
Default                                  : Да
Forced                                   : Нет
Основные цвета                           : BT.709
Характеристики трансфера                 : BT.709
Коэффициенты матрицы                     : BT.709
colour_range                             : Limited
Аудио #1
Идентификатор                            : 2
Формат                                   : AC-3
Формат/Информация                        : Audio Coding 3
Расширение режима                        : CM (complete main)
Параметр Endianness формата              : Big
Идентификатор кодека                     : A_AC3
Продолжительность                        : 54 м.
Вид битрейта                             : Постоянный
Битрейт                                  : 192 Кбит/сек
Каналы                                   : 2 канала
Расположение каналов                     : Front: L R
Частота                                  : 48,0 КГц
Битовая глубина                          : 16 бит
Метод сжатия                             : С потерями
Размер потока                            : 75,3 Мбайт (2%)
Язык                                     : Polish
Default                                  : Да
Forced                                   : Нет
Аудио #2
Идентификатор                            : 3
Формат                                   : AC-3
Формат/Информация                        : Audio Coding 3
Расширение режима                        : CM (complete main)
Параметр Endianness формата              : Big
Идентификатор кодека                     : A_AC3
Продолжительность                        : 54 м.
Вид битрейта                             : Постоянный
Битрейт                                  : 192 Кбит/сек
Каналы                                   : 2 канала
Расположение каналов                     : Front: L R
Частота                                  : 48,0 КГц
Битовая глубина                          : 16 бит
Метод сжатия                             : С потерями
Размер потока                            : 75,3 Мбайт (2%)
Язык                                     : Russian
Default                                  : Нет
Forced                                   : Нет
Скриншоты:
2, 9 - 18 серии:
Видеокодек: MPEG-4 AVC/H.264
Битрейт видео: ~ 4188 Кбит/сек
Размер кадра: 1280х720 (16:9)
Аудио 1 Pol: AC-3, 6 channels, 384 kbps, 48 kHz - оригинал
Аудио 2 Rus: AC-3, 2 channels, 192 kbps, 48 kHz - двухголосый закадровый
Код:
Продолжительность                        : 1 ч. 1 м.
Общий поток                              : 4860 Кбит/сек
Дата кодирования                         : UTC 2014-12-13 15:39:04
Программа кодирования                    : mkvmerge v7.4.0 ('Circles') 64bit built on Dec 12 2014 12:19:56
Библиотека кодирования                   : libebml v1.3.0 + libmatroska v1.4.1
Видео
Идентификатор                            : 1
Формат                                   : AVC
Формат/Информация                        : Advanced Video Codec
Профиль формата                          : [email protected]
Параметр CABAC формата                   : Да
Параметр ReFrames формата                : 5 кадров
Идентификатор кодека                     : V_MPEG4/ISO/AVC
Продолжительность                        : 1 ч. 1 м.
Битрейт                                  : 4188 Кбит/сек
Ширина                                   : 1280 пикселей
Высота                                   : 720 пикселей
Соотношение сторон                       : 16:9
Режим частоты кадров                     : Постоянный
Частота кадров                           : 25,000 кадров/сек
Цветовое пространство                    : YUV
Субдискретизация насыщенности            : 4:2:0
Битовая глубина                          : 8 бит
Тип развёртки                            : Прогрессивная
Бит/(Пиксели*Кадры)                      : 0.182
Размер потока                            : 1,80 Гбайт (86%)
Default                                  : Да
Forced                                   : Нет
Аудио #1
Идентификатор                            : 2
Формат                                   : AC-3
Формат/Информация                        : Audio Coding 3
Расширение режима                        : CM (complete main)
Параметр Endianness формата              : Big
Идентификатор кодека                     : A_AC3
Продолжительность                        : 1 ч. 1 м.
Вид битрейта                             : Постоянный
Битрейт                                  : 384 Кбит/сек
Каналы                                   : 6 каналов
Расположение каналов                     : Front: L C R, Side: L R, LFE
Частота                                  : 48,0 КГц
Битовая глубина                          : 16 бит
Метод сжатия                             : С потерями
Размер потока                            : 169 Мбайт (8%)
Язык                                     : Polish
Default                                  : Да
Forced                                   : Нет
Аудио #2
Идентификатор                            : 3
Формат                                   : AC-3
Формат/Информация                        : Audio Coding 3
Расширение режима                        : CM (complete main)
Параметр Endianness формата              : Big
Идентификатор кодека                     : A_AC3
Продолжительность                        : 1 ч. 1 м.
Вид битрейта                             : Постоянный
Битрейт                                  : 192 Кбит/сек
Каналы                                   : 2 канала
Расположение каналов                     : Front: L R
Частота                                  : 48,0 КГц
Битовая глубина                          : 16 бит
Метод сжатия                             : С потерями
Размер потока                            : 84,3 Мбайт (4%)
Язык                                     : Russian
Default                                  : Нет
Forced                                   : Нет
Скриншоты:
Download / Скачать

Хотите скачать бесплатно? Зарегистрируйтесь на сайте (ссылка на регистрацию). Pirat.ca - самый быстрый торрент трекер в рунете!

Как скачивать  ·   Что такое торрент  ·   Рейтинг и ограничения



Последний раз редактировалось: naryshev (2014-12-16 20:43), всего редактировалось 15 раз(а)

naryshev ®

Флибустьер

8215

Пост 15-Дек-2014 20:15 (спустя 43 минуты)

[Q] 

налетаем... aj

_________________
[Профиль]  [ЛС] 

Андря

8405

Пост 16-Дек-2014 02:47 (спустя 6 часов)

[Q] 

618183налетаем...
вот мы бы налетели, но .....
встаньте на раздачу. А если будете сидировать, то я вам прощу все недочёты и ошибки в оформлении, всё исправлю сам.
в частности медиаданные неверны.

_________________
Като Тешекика
[Профиль]  [ЛС] 

naryshev ®

Флибустьер

8215

Пост 16-Дек-2014 11:09 (спустя 8 часов)

[Q] 

я поправил всё по оригинальным сериям

_________________
[Профиль]  [ЛС] 

naryshev ®

Флибустьер

8215

Пост 16-Дек-2014 22:35 (спустя 11 часов)

[Q] 

Ты чаво опять смурной?
Что причиной, кто виной?
Аль гишпанец гоношится,
Аль хранцуз пошел войной?

_________________
[Профиль]  [ЛС] 

Пост 17-Дек-2014 02:50 (спустя 4 часа)

Топик был перенесен из форума Зарубежные сериалы (Трюм) в форум Зарубежные сериалы
Андря
 

megamastor

2827

Пост 17-Дек-2014 14:37 (спустя 16 часов)

[Q] 

Я выкачал и сидирую. Если надо могу только эту раздачу раздавать. Пишите в ЛС.
[Профиль]  [ЛС] 

naryshev ®

Флибустьер

8215

Пост 17-Дек-2014 20:24 (спустя 5 часов)

[Q] 

Господа! Не нужно волнений, просто мой рабочий день не соответствует Вашему отдыху и наоборот. всеми фибрами своей души буду стараться раздавать, но тут как пойдет.
Ну а вообще помогите с раздачей...
Файл удалять пока не собираюсь.

_________________
[Профиль]  [ЛС] 

as_KER

Лоцман

Пост 18-Дек-2014 22:00 (спустя 1 день 1 час)

[Q] 

Моё детство... СПАСИБО
[Профиль]  [ЛС] 

naryshev ®

Флибустьер

8215

Пост 21-Дек-2014 15:21 (спустя 2 дня 17 часов)

[Q] 

as_KER, Буду стараться изыскивать вот такие вот шедевры...

_________________
[Профиль]  [ЛС] 

olipov

Легенда

Пост 23-Дек-2014 01:07 (спустя 1 день 9 часов)

[Q] 

Лови бочку
[Профиль]  [ЛС] 
Показать сообщения:    
Ответить на тему

Текущее время: Сегодня 15:35

Часовой пояс: GMT + 4



Вы не можете начинать темы
Вы не можете отвечать на сообщения
Вы не можете редактировать свои сообщения
Вы не можете удалять свои сообщения
Вы не можете голосовать в опросах
Вы не можете прикреплять файлы к сообщениям
Вы не можете скачивать файлы

▼ Вниз