ML
     
  Уважаемый Гость!
Вы можете поддержать проект и зарегистрироваться у наших партнеров - онлайн-стратегия MyLands. При регистрации в игре Вы получите код, который сможете активировать после регистрации на pirat.ca и получить 1000 дублонов.

Ваш код:
fe4e93b754a7c2b306fcfc8bc32532ea1cf59d3b
 
     

Четыре танкиста и собака / Czterey Рancerni I Рies [Серии: 1-21 из 21] (Анджей Цекальски / Andrzej Czekalski ...) [1966 г., приключения, военный, ..., DVDRip] MVO

Ответить на тему
 
Автор
Сообщение

Пост 16-Дек-2014 19:34

[Q] 

naryshev

Флибустьер

Четыре танкиста и собака / Czterey Рancerni I Рies-- Русское название: Четыре танкиста и собака
Оригинальное название: Czterey Рancerni I Рies
Год выпуска: 1966
Страна: Польша
Жанр: приключения, военный, ...
Премьера (мир): 25 сентября 1968
Релиз на DVD: 23 декабря 2010, «Cinema Prestige», ...
Режиссер: Анджей Цекальски / Andrzej Czekalski, Конрад Налески / Konrad Nalecki
Актеры:
Тадеуш Калиновский (...Полковник), Пола Ракса (...Маруся), Александр Белявский, Франтишек Печка (...Густав), Януш Гайос (...Янек), Влодимеж Шпресс (...Грирорий), Веслав Голаш (...Томаш), Роман Вильхельми (...Ольгерд Ярош), Молгожата Нимирска (...Лидка), Витольд Пыркош (...Франек), Януш Клосиньский (...Черноусов), Барбара Краффтова (...Хонората), Тадеуш Фиевский (...Черешняк), Кшиштоф Литвин.
Описание фильма:
Сформированный польский экипаж танка "RUDY" участвует в военных операциях по освобождению территории Польши и стран Европы от немецко-фашистских захватчиков.Попадая во всевозможные истории, экипаж всегда выходит из них с честью Искрометный юмор и невероятные приключения не оставят вас равнодушными.
История польского паренька Янека Коса, потерявшего свою семью когда началась вторая мировая война, вступившего в польскую дивизию, которая формировалась в Советском Союзе, и прошедшего всю войну до самого конца - вместе со своими боевыми товарищами, экипажем танка по прозвищу "Рыжий". Дружба, приключения, легкий юмор, мелодраматическая история и романтическая любовь - что еще нужно зрителю? Да еще и умница-собака Шарик, ничем не хуже американской Лесси (которую тоже показывали нам как раз в те годы). Сериал про танкистов и собаку был просто невероятно популярен в СССР, вряд ли среди старшего поколения найдется кто-то, кто его не знает. А то что там несколько выпячена тема социалистического братства и польско-советской дружбы, так это мелочи.

КИНОПОИСК
IMDB
Продолжительность: ~53 минуты
Перевод: Многоголосый, закадровый
Качество видео: DVDRip
Видеокодек: XviD
Аудиокодек: MP3
Видео: 640x480 (1.33:1), 25 fps ~1400 kbps avg, 0.19 bit/pixel
Аудио: 48 kHz, MPEG Layer 3, 2 ch, ~128.00 kbps avg
1 серия - "Экипаж" (53 мин.)
2 серия - "Радость и горе" (53 мин.)
3 серия - "Где мы - там граница" (53 мин.)
4 серия - "Собачий коготь" (53 мин.)
5 серия - "Рыжий, мед и награда" (49 мин.)
6 серия - "Мост" (52 мин.)
7 серия - "На перепутье" (51 мин.)
8 серия - "Берег моря" (45 мин.)
9 серия - "Замена" (59 мин.)
10 серия - "На 15 минуте после четного часа" (56 мин.)
11 серия - "Военный сев" (56 мин.)
12 серия - "Форт "Ольгерд" (55 мин.)
13 серия - "Пари со смертью" (55 мин.)
14 серия - "Над шлюзрм" (57 мин.)
15 серия - "Высокая волна" (51 мин.)
16 серия - "Дальний дозор" (56 мин.)
17 серия - "Клин" (54 мин.)
18 серия - "Кольца" (60 мин.)
19 серия - "Тергадор" (55 мин.)
20 серия - "Ворота"( 52 мин.)
21 серия - "Дом" (65 мин.)
Общее
Полное имя : E:\Фильмы\4.Tankista.i.sobaka\Czterej.Pancerni.I.Pies.01.Zaloga.avi
Формат : AVI
Формат/Информация : Audio Video Interleave
Размер файла : 602 Мбайт
Продолжительность : 53 м.
Общий поток : 1576 Кбит/сек
Программа кодирования : VirtualDubModRus 1.5.10.2 (build 2542/release)
Библиотека кодирования : VirtualDubMod build 2542/release
Видео
Идентификатор : 0
Формат : MPEG-4 Visual
Профиль формата : Advanced [email protected]
Параметр BVOP формата : 1
Параметр QPel формата : Нет
Параметр GMC формата : Без точки перехода
Параметр матрицы формата : Выборочная
Идентификатор кодека : XVID
Идентификатор кодека/Подсказка : XviD
Продолжительность : 53 м.
Битрейт : 1438 Кбит/сек
Ширина : 640 пикселей
Высота : 480 пикселей
Соотношение сторон : 4:3
Частота кадров : 25,000 кадров/сек
Цветовое пространство : YUV
Субдискретизация насыщенности : 4:2:0
Битовая глубина : 8 бит
Тип развёртки : Прогрессивная
Метод сжатия : С потерями
Бит/(Пиксели*Кадры) : 0.187
Размер потока : 549 Мбайт (91%)
Библиотека кодирования : XviD 1.1.2 (UTC 2006-11-01)
Аудио
Идентификатор : 1
Формат : MPEG Audio
Версия формата : Version 1
Профиль формата : Layer 3
Режим : Joint stereo
Идентификатор кодека : 55
Идентификатор кодека/Подсказка : MP3
Продолжительность : 53 м.
Вид битрейта : Постоянный
Битрейт : 128 Кбит/сек
Каналы : 2 канала
Частота : 48,0 КГц
Метод сжатия : С потерями
Размер потока : 48,9 Мбайт (8%)
Выравнивание : Соединение по промежуткам
Продолжительность промежутка : 40 мс. (1,00 видеокадр)
Время предзагрузки промежутка : 504 мс.
Язык : Russian
Скриншоты:
Download / Скачать

Хотите скачать бесплатно? Зарегистрируйтесь на сайте (ссылка на регистрацию). Pirat.ca - самый быстрый торрент трекер в рунете!

Как скачивать  ·   Что такое торрент  ·   Рейтинг и ограничения

naryshev ®

Флибустьер

8215

Пост 16-Дек-2014 22:13 (спустя 2 часа 39 минут)

[Q] 

Утром мажу бутерброд --
Сразу мысль: а как народ?
И икра не лезет в горло,
И компот не льется в рот!
Ночью встану у окна
И стою всю ночь без сна --
Все волнуюсь об Расее,
Как там, бедная, она?

_________________
[Профиль]  [ЛС] 

Пост 16-Дек-2014 23:08 (спустя 54 минуты)

Топик был перенесен из форума Зарубежные сериалы (Трюм) в форум Зарубежные сериалы
kugesan
 

naryshev ®

Флибустьер

8215

Пост 17-Дек-2014 20:25 (спустя 22 часа)

[Q] 

Буду стараться раздавать в меру своих сил и времени.
Удалять файл пока не собираюсь

_________________
[Профиль]  [ЛС] 

EDVAR

Легенда

Пост 18-Дек-2014 14:08 (спустя 17 часов)

[Q] 

В те года был очень популярен сериал. Спасибо!!!

_________________
"Как других судить-вы судьи.Как себя-вы адвокаты"
[Профиль]  [ЛС] 

Amefa

Лоцман

Пост 10-Янв-2015 16:41 (спустя 23 дня)

[Q] 

Жанр: Военный, Боевик, Семейный =))))))))))))
[Профиль]  [ЛС] 

SarmatKumar

Морской Волк

Пост 01-Фев-2015 00:57 (спустя 21 день)

[Q] 

Спасибо за раздачу. Автору респект!!!
[Профиль]  [ЛС] 
Показать сообщения:    
Ответить на тему

Текущее время: Сегодня 14:32

Часовой пояс: GMT + 4



Вы не можете начинать темы
Вы не можете отвечать на сообщения
Вы не можете редактировать свои сообщения
Вы не можете удалять свои сообщения
Вы не можете голосовать в опросах
Вы не можете прикреплять файлы к сообщениям
Вы не можете скачивать файлы

▼ Вниз