ML
     
  Уважаемый Гость!
Вы можете поддержать проект и зарегистрироваться у наших партнеров - онлайн-стратегия MyLands. При регистрации в игре Вы получите код, который сможете активировать после регистрации на pirat.ca и получить 1000 дублонов.

Ваш код:
b70663c760e7cd2521b8e123786cdd788200e3bd
 
     

Спираль / Helix / Сезон: 2 / Полный / Серии: 13 из 13 (Брэд Тернер / Brad Turner, ...) [2014 г., Фантастика, триллер, WEB-DLRip] MVO (AlexFilm) + Original (Eng)

Ответить на тему
 
Автор
Сообщение

Пост 18-Янв-2015 12:40

[Q] 

kugesan

-Спираль / Helix
«The truth will spread»
-- Производство: США, Канада
Жанр: фантастика, триллер, ...
Год выпуска: 2014 г.-Премьера (мир): 10 января 2014, ...
Премьера (РФ): 3 марта 2014-Озвучка: Студия
Перевод: Многоголосый закадровый, профессиональный
Оригинальный аудиопоток: английский-Перевод: Константин Кривоногов
Озвучка: Татьяна Манентина, Михаил Суслов, Владимир Курдов, Владислав Данилов
Монтаж и сведение звука: Михаил Шорыгин
Постер: Андрей Шапал-Режиссер: Брэд Тернер / Brad Turner, Джеримайя С. Чечик / Jeremiah S. Chechik, Дуан Кларк / Duane Clark-В ролях: Билл Кэмпбелл, Кира Загорски, Джордан Хэйес, Марк Ганиме, Нил Напье, Мэтт Лонг, Стивен Уэбер, Джим Торберн, Кристина Розато, Патриция Саммерсетт, Элисон Лодер ...-Описание:
Едва спасшись, оставшиеся в живых герои первого сезона пытаются забыть об ужасах, с которыми они столкнулись на станции "Арктик Биосистемс". Но когда работа забрасывает их на отдалённый таинственный остров, они быстро понимают, что влияние корпорации "Илария" простирается шире, чем можно было представить, и новый смертоносный вирус обернётся угрозой, которая ранее казалась невозможной-Сезон: 2
Серии: 13 из 13 серий
Продолжительность: ~ 00:41:00 мин серия-
Качество видео: WEB-DLRip
Контейнер: AVI
Видео кодек: XviD
Аудио кодек: MP3
Видео: MPEG-4 Visual at 1401 Кбит/сек: 720 x 400 (1.800) at 23.976 fps: 0.20 Бит/Пиксели
Аудио Rus: MPEG Audio at 128 Кбит/сек: 2 канала, 48,0 КГц |AlexFilm|
Аудио Eng: MPEG Audio at 128 Кбит/сек: 2 канала, 48,0 КГц |Original|
Cубтитры: отсутствуют
- -
  • Сан Хосе (San Jose)
  • Воссоединение (Reunion)
  • Привой (Scion)
  • Наследие (Densho)
  • Ублиет (Oubliette)
  • Яблоня домашняя (M. Domestica)
  • Перекрестное опыление (Cross-Pollination)
  • Иди с миром (Vade In Pace)
  • Эктогенез (Ectogenesis)
  • Мать (Mother)
  • План Б (Plan B)
  • Преемник (The Ascendant)
  • О храбрый новый мир (O Brave New World)
-
Общее
Полное имя : E:\_Сериалы\_Сериалы\Спираль\Helix - Season 2 (AlexFilm) WEB-DLRip\Helix.s02e01.WEB-DLRip.Rus.Eng.AlexFilm.avi
Формат : AVI
Формат/Информация : Audio Video Interleave
Размер файла : 500 Мбайт
Продолжительность : 41 м.
Общий поток : 1671 Кбит/сек
Название фильма : Helix 2x01 San Jose
Программа кодирования : VirtualDubMod 1.5.10.2 (build 2542/release)
Видео
Идентификатор : 0
Формат : MPEG-4 Visual
Профиль формата : Advanced [email protected]
Параметр BVOP формата : 1
Параметр QPel формата : Нет
Параметр GMC формата : Без точки перехода
Параметр матрицы формата : Default (MPEG)
Идентификатор кодека : XVID
Идентификатор кодека/Подсказка : XviD
Продолжительность : 41 м.
Битрейт : 1401 Кбит/сек
Ширина : 720 пикселей
Высота : 400 пикселей
Соотношение сторон : 16:9
Частота кадров : 23,976 кадра/сек
Цветовое пространство : YUV
Субдискретизация насыщенности : 4:2:0
Битовая глубина : 8 бит
Тип развёртки : Прогрессивная
Метод сжатия : С потерями
Бит/(Пиксели*Кадры) : 0.203
Размер потока : 419 Мбайт (84%)
Библиотека кодирования : XviD 1.2.1 (UTC 2008-12-04)
Аудио #1
Идентификатор : 1
Формат : MPEG Audio
Версия формата : Version 1
Профиль формата : Layer 3
Режим : Joint stereo
Расширение режима : MS Stereo
Идентификатор кодека : 55
Идентификатор кодека/Подсказка : MP3
Продолжительность : 41 м.
Вид битрейта : Постоянный
Битрейт : 128 Кбит/сек
Каналы : 2 канала
Частота : 48,0 КГц
Метод сжатия : С потерями
Размер потока : 38,3 Мбайт (8%)
Выравнивание : Соединение по промежуткам
Продолжительность промежутка : 42 мс. (1,00 видеокадр)
Время предзагрузки промежутка : 504 мс.
Заголовок : Russian (AlexFilm)
Аудио #2
Идентификатор : 2
Формат : MPEG Audio
Версия формата : Version 1
Профиль формата : Layer 3
Режим : Joint stereo
Идентификатор кодека : 55
Идентификатор кодека/Подсказка : MP3
Продолжительность : 41 м.
Вид битрейта : Постоянный
Битрейт : 128 Кбит/сек
Каналы : 2 канала
Частота : 48,0 КГц
Метод сжатия : С потерями
Размер потока : 38,3 Мбайт (8%)
Выравнивание : Соединение по промежуткам
Продолжительность промежутка : 42 мс. (1,00 видеокадр)
Время предзагрузки промежутка : 504 мс.
Заголовок : English
-
-Скриншоты:
-
-
1. Открыть торрент
2. Снять галки с тех файлов торрента, которые мы не хотим закачивать. Оставляем только на нужных нам файлах (файле).
3. Нажать О.К.
В клиенте utorrent
Инструкция
1) Открыть торрент

2) Снять галки с тех файлов торрента, которые мы не хотим закачивать:
* либо вручную, снимая с каждого файла галку( скрин №1)
* либо, нажав кнопку "Снять метки (Select None)", сняв сразу со всех файлов(скрин №2)
№1

№2

Оставляем только на нужных нам файлах (файле).

3)Нажать О.К
-Добавлена тринадцатая, заключительная, серия второго сезона
Download / Скачать

Хотите скачать бесплатно? Зарегистрируйтесь на сайте (ссылка на регистрацию). Pirat.ca - самый быстрый торрент трекер в рунете!

Как скачивать  ·   Что такое торрент  ·   Рейтинг и ограничения



Последний раз редактировалось: kugesan (2015-04-14 11:52), всего редактировалось 16 раз(а)

Susler

Морской Волк

Пост 18-Янв-2015 20:38 (спустя 7 часов)

[Q] 

Долго пытался понять, что за "Спирахь"...
[Профиль]  [ЛС] 

Ryddik

Корсар

5

Пост 25-Янв-2015 17:33 (спустя 6 дней)

[Q] 

!COOL!
Спасибо!!!
[Профиль]  [ЛС] 

kugesan ®

56632

Пост 25-Янв-2015 18:01 (спустя 28 минут)

[Q] 

Приятного просмотра!!!

_________________

В мире две бесконечности: вселенная и человеческая глупость - Альберт Эйнштен
«Можно вытащить человека из грязи, но нельзя вытащить грязь из человека»!
[Профиль]  [ЛС] 

Dmitriy1881

Корсар

Пост 07-Фев-2015 15:25 (спустя 12 дней)

[Q] 

спасибо!!!!!!!!!!!
[Профиль]  [ЛС] 

kugesan ®

56632

Пост 13-Апр-2015 23:41 (спустя 2 месяца 6 дней)

[Q] 

Добавлена тринадцатая, заключительная, серия второго сезона

_________________

В мире две бесконечности: вселенная и человеческая глупость - Альберт Эйнштен
«Можно вытащить человека из грязи, но нельзя вытащить грязь из человека»!
[Профиль]  [ЛС] 

Пост 14-Апр-2015 14:17 (спустя 14 часов)

Топик был перенесен из форума Сериалы в эфире в форум Зарубежные сериалы
Андря
 

Region-89

Гроза морей

550

Пост 14-Апр-2015 15:49 (спустя 16 часов)

[Q] 

самая здравая озвучка! fh

_________________
[Профиль]  [ЛС] 

kugesan ®

56632

Пост 14-Апр-2015 18:48 (спустя 2 часа 58 минут)

[Q] 

Приятного просмотра!!!

_________________

В мире две бесконечности: вселенная и человеческая глупость - Альберт Эйнштен
«Можно вытащить человека из грязи, но нельзя вытащить грязь из человека»!
[Профиль]  [ЛС] 
Показать сообщения:    
Ответить на тему

Текущее время: Сегодня 00:22

Часовой пояс: GMT + 4



Вы не можете начинать темы
Вы не можете отвечать на сообщения
Вы не можете редактировать свои сообщения
Вы не можете удалять свои сообщения
Вы не можете голосовать в опросах
Вы не можете прикреплять файлы к сообщениям
Вы не можете скачивать файлы

▼ Вниз