ML
     
  Уважаемый Гость!
Вы можете поддержать проект и зарегистрироваться у наших партнеров - онлайн-стратегия MyLands. При регистрации в игре Вы получите код, который сможете активировать после регистрации на pirat.ca и получить 1000 дублонов.

Ваш код:
11f49771fdf057c9d51610e4a0925c3b46ddb655
 
     

Чёрные паруса / Black Sails / Сезон: 2 / Полный / Серии: 10 из 10 (Стив Бойум / Steve Boyum ...) [2014г., драма, приключения, ..., HDTVRip] МVO (AlexFilm) + Original (Eng)

Ответить на тему
 
Автор
Сообщение

Пост 26-Янв-2015 12:18

[Q] 

kugesan


Чёрные паруса /Black Sails
- Русское название: Чёрные паруса
Оригинальное название: Black Sails
Страна: США, ЮАР
Год выпуска: 2014
Жанр: драма, приключения, ...-Релиз: Студия
Перевод: Профессиональный (многоголосый, закадровый)
Оригинальный аудиопоток: английский-Автор перевода:: Константин Кривоногов
Озвучка: Евгения Тихонова, Александр Воронов, Константин Погодаев, Михаил Суслов, Владимир Курдов, Владислав Данилов
Монтаж и сведение звука: Михаил Шорыгин
Обложка: Андрей Шапал-Премьера (мир): 25 января 2014
Премьера (РФ): 26 января 2014-Режиссер: Стив Бойум / Steve Boyum, Нил Маршалл / Neil Marshall, Сэм Миллер / Sam Miller, ...
В главных ролях: Зэк МакГоун, Люк Арнольд, Джессика Паркер Кеннеди, Луиз Барнс, Тоби Стивенс, Ханна Нью, Шон Майкл, Ричард Дж.В. Фёрт, Патрик Листер, Тоби Шмит, ...-Описание фильма:
1715 год. Золотой век — вершина пиратства в Карибском море. Остров бывшей британской колонии Нью-Провиденс является территорией беззакония, контролируемый самыми известными пиратскими капитанами в истории. Самым грозным из них является капитан Флинт.Но британский флот возвращается в эти воды, угрожая уничтожить Флинта и его команду. Движимый глубокими, сложными, даже романтическими мотивами, Флинт становится союзником с грозной Элеонорой Гатри, дочерью местного вора в законе, который превращает добычу пиратов в прибыль. Вместе они создают план, охотясь за высшей наградой, выиграв которую, они остановят захват своего дома и обеспечат их выживание.Им противостоит ряд соперников: конкурент капитана, завидующий власти Флинта, отец Элеоноры, чьи амбиции на острове приводят к конфликту с дочерью, и молодой моряк, Джон Сильвер, недавно принятый в экипаж Флинта, которому каким-то образом удается постоянно срывать планы своего капитана.-Сезон: 2
Серии: 10 из 10 серий
Продолжительность: ~ 00:52:00 мин серия-
Качество видео: HDTVRip
Формат: AVI
Видеокодек: XviD
Аудиокодек: MP3
Видео: MPEG-4 Visual at 1401 Кбит/сек: 720 x 400 (1.800) at 23.976 fps, 0.20 bit/pixel
Аудио Rus: MPEG Audio at 128 Кбит/сек, 2 канала, 48,0 КГц |AlexFilm|
Аудио Eng: MPEG Audio at 128 Кбит/сек: 2 канала, 48,0 КГц |Original|
Cубтитры: отсутствуют
-
-
Общее
Полное имя : E:\_Сериалы\_Сериалы\Чёрные Паруса\Black Sails - Season 2 (AlexFilm)\Black.Sails.s02e01.Rus.Eng.AlexFilm.avi
Формат : AVI
Формат/Информация : Audio Video Interleave
Размер файла : 628 Мбайт
Продолжительность : 52 м.
Общий поток : 1671 Кбит/сек
Название фильма : Black Sails 2x01 @ AlexFilm
Программа кодирования : VirtualDubMod 1.5.10.2 (build 2542/release)
Видео
Идентификатор : 0
Формат : MPEG-4 Visual
Профиль формата : Advanced [email protected]
Параметр BVOP формата : 1
Параметр QPel формата : Нет
Параметр GMC формата : Без точки перехода
Параметр матрицы формата : Default (MPEG)
Идентификатор кодека : XVID
Идентификатор кодека/Подсказка : XviD
Продолжительность : 52 м.
Битрейт : 1401 Кбит/сек
Ширина : 720 пикселей
Высота : 400 пикселей
Соотношение сторон : 16:9
Частота кадров : 23,976 кадра/сек
Цветовое пространство : YUV
Субдискретизация насыщенности : 4:2:0
Битовая глубина : 8 бит
Тип развёртки : Прогрессивная
Метод сжатия : С потерями
Бит/(Пиксели*Кадры) : 0.203
Размер потока : 526 Мбайт (84%)
Библиотека кодирования : XviD 1.2.1 (UTC 2008-12-04)
Аудио #1
Идентификатор : 1
Формат : MPEG Audio
Версия формата : Version 1
Профиль формата : Layer 3
Режим : Joint stereo
Расширение режима : MS Stereo
Идентификатор кодека : 55
Идентификатор кодека/Подсказка : MP3
Продолжительность : 52 м.
Вид битрейта : Постоянный
Битрейт : 128 Кбит/сек
Каналы : 2 канала
Частота : 48,0 КГц
Метод сжатия : С потерями
Размер потока : 48,1 Мбайт (8%)
Выравнивание : Соединение по промежуткам
Продолжительность промежутка : 42 мс. (1,00 видеокадр)
Время предзагрузки промежутка : 504 мс.
Заголовок : Russian (AlexFilm)
Аудио #2
Идентификатор : 2
Формат : MPEG Audio
Версия формата : Version 1
Профиль формата : Layer 3
Режим : Joint stereo
Идентификатор кодека : 55
Идентификатор кодека/Подсказка : MP3
Продолжительность : 52 м.
Вид битрейта : Постоянный
Битрейт : 128 Кбит/сек
Каналы : 2 канала
Частота : 48,0 КГц
Метод сжатия : С потерями
Размер потока : 48,1 Мбайт (8%)
Выравнивание : Соединение по промежуткам
Продолжительность промежутка : 42 мс. (1,00 видеокадр)
Время предзагрузки промежутка : 504 мс.
Заголовок : English
-
-Скриншоты:
-
-
1. Открыть торрент
2. Снять галки с тех файлов торрента, которые мы не хотим закачивать. Оставляем только на нужных нам файлах (файле).
3. Нажать О.К.
В клиенте utorrent
Инструкция
1) Открыть торрент

2) Снять галки с тех файлов торрента, которые мы не хотим закачивать:
* либо вручную, снимая с каждого файла галку( скрин №1)
* либо, нажав кнопку "Снять метки (Select None)", сняв сразу со всех файлов(скрин №2)
№1

№2

Оставляем только на нужных нам файлах (файле).

3)Нажать О.К
-Добавлена десятая, заключительная, серия второго сезона
Download / Скачать

Хотите скачать бесплатно? Зарегистрируйтесь на сайте (ссылка на регистрацию). Pirat.ca - самый быстрый торрент трекер в рунете!

Как скачивать  ·   Что такое торрент  ·   Рейтинг и ограничения



Последний раз редактировалось: kugesan (2015-03-31 17:22), всего редактировалось 14 раз(а)

Пост 26-Янв-2015 12:49 (спустя 30 минут)

Топик был перенесен из форума Зарубежные сериалы (Трюм) в форум Сериалы в эфире
Андря
 

medved218

Корсар

Пост 27-Янв-2015 00:58 (спустя 12 часов)

[Q] 

Автору Респект, думал фейк! В торенте 1 серия! Всем качать!!! Лови бочку
[Профиль]  [ЛС] 

Ahzool

Корсар

Пост 30-Янв-2015 18:40 (спустя 3 дня)

[Q] 

kugesan Раздающему респект! Лови бочку останусь на раздаче!))

_________________
Si non es occupatus quid natum moriendo occupatus es,beauty creatur vultus.
[Профиль]  [ЛС] 

kugesan ®

56710

Пост 30-Янв-2015 23:28 (спустя 4 часа)

[Q] 

Ahzool, Спасибо огромное!!! aa az

_________________

В мире две бесконечности: вселенная и человеческая глупость - Альберт Эйнштен
«Можно вытащить человека из грязи, но нельзя вытащить грязь из человека»!
[Профиль]  [ЛС] 

Region-89

Гроза морей

550

Пост 03-Фев-2015 12:08 (спустя 3 дня)

[Q] 

самая крутая озвучка! dz

_________________
[Профиль]  [ЛС] 

jofrei53

Корсар

Пост 17-Фев-2015 21:40 (спустя 14 дней)

[Q] 

kugesan, Огромное СПАСИБО!!!От других не мог дождаться...Успехов.. Автору респект!!! Лови бочку
[Профиль]  [ЛС] 

kugesan ®

56710

Пост 17-Фев-2015 22:23 (спустя 43 минуты)

[Q] 

jofrei53, Спасибо за Спасибо Приятного просмотра!!!

_________________

В мире две бесконечности: вселенная и человеческая глупость - Альберт Эйнштен
«Можно вытащить человека из грязи, но нельзя вытащить грязь из человека»!
[Профиль]  [ЛС] 

yellowbarmaley

Шкипер

Пост 18-Фев-2015 11:31 (спустя 13 часов)

[Q] 

Что то сериал на американский не похож! Где гомосеки? Лесбух вижу, а гомиков нету! Почему Флинт не китаец? Как то это не по амэрыкански!
Автору респект!!! Лови бочку
[Профиль]  [ЛС] 

medved218

Корсар

Пост 24-Фев-2015 13:20 (спустя 6 дней)

[Q] 

Флинт пи***р ...как это в духе амеров. сериалу кердык
[Профиль]  [ЛС] 

doc1

Лоцман

Пост 24-Фев-2015 17:45 (спустя 4 часа)

[Q] 

Первый сезон еще вроде смотребелен, но второй поражает, что ни серия то не о чем, пятую посмотрел что радио послушал, главный акт в пиратском сериале, нет не грабеж и убийства, а публичный дом и публичный трах, подтверждаю (medved218) сериал умер На любителя
[Профиль]  [ЛС] 

kugesan ®

56710

Пост 31-Мар-2015 17:23 (спустя 1 месяц 6 дней)

[Q] 

Добавлена десятая, заключительная, серия второго сезона

_________________

В мире две бесконечности: вселенная и человеческая глупость - Альберт Эйнштен
«Можно вытащить человека из грязи, но нельзя вытащить грязь из человека»!
[Профиль]  [ЛС] 

pdb08

Легенда

Пост 31-Мар-2015 18:58 (спустя 1 час 35 минут)

[Q] 

Спасибо Автору респект!!!

_________________
[Профиль]  [ЛС] 
Показать сообщения:    
Ответить на тему

Текущее время: Сегодня 03:10

Часовой пояс: GMT + 4



Вы не можете начинать темы
Вы не можете отвечать на сообщения
Вы не можете редактировать свои сообщения
Вы не можете удалять свои сообщения
Вы не можете голосовать в опросах
Вы не можете прикреплять файлы к сообщениям
Вы не можете скачивать файлы

▼ Вниз