ML
     
  Уважаемый Гость!
Вы можете поддержать проект и зарегистрироваться у наших партнеров - онлайн-стратегия MyLands. При регистрации в игре Вы получите код, который сможете активировать после регистрации на pirat.ca и получить 1000 дублонов.

Ваш код:
889d70935c4fffceb4714fb4c533e9eecbe9dbad
 
     

Фортитьюд / Fortitude / Сезон: 1 / Серии: 12 из 12 (Сэм Миллер / Sam Miller ...) [2015 г., триллер, драма, детектив, ..., WEB-DLRip] MVO (AlexFilm) + Original (Eng) (финал сезона)

Ответить на тему
 
Автор
Сообщение

Пост 26-Янв-2015 21:03

[Q] 

kugesan

-Фортитьюд / Fortitude -- Производство: Великобритания
Жанр: триллер, драма, детектив, ...
Год выпуска: 2015 г.
Продолжительность: ~ 00:47:00 мин серия-Мировая премьера: 29 января 2015, ...-Озвучка: Студия
Перевод: Многоголосый закадровый, профессиональный
Оригинальный аудиопоток: английский-Автор перевода: Константин Кривоногов
Озвучка: Татьяна Манентина, Михаил Суслов, Владимир Курдов, Сергей Пономарёв
Монтаж и сведение звука: Михаил Шорыгин-Режиссер: Сэм Миллер / Sam Miller, Хетти Макдональд / Hettie Macdonald, Ник Харран / Nick Hurran, ...-В ролях: Кристофер Экклстон, Майкл Гэмбон, Ричард Дормер, Стэнли Туччи, Софи Гробёль, Николас Пиннок, Джессика Рэйн, Вероника Эчеги, Люк Тредэвэй, Сиенна Гиллори, Джонни Харрис, Даррен Бойд, Миа Ексен, Александра Моэн, Бьерн Хлинур Харальдссон, Аарон Маккаскер, Майкл Обиора, Эмиль Хостина, Чипо Чанг ...-Описание:
Fortitude – небольшой городок в Арктике, из-за полного отсутствия преступности считающийся самым безопасным местом на земле. Но вот однажды в городе находят тело убитого британского ученого . Шериф Андерсон и командированный в город детектив полиции Милтон Колдуэлл приступают к расследованию. И чем дальше заходит расследование, тем шире становится список подозреваемых, а поведение шерифа и детектива – все более странным и заставляющим их все меньше доверять друг другу.-Качество видео: WEB-DLRip
Контейнер: AVI
Видео кодек: XviD
Аудио кодек: AC-3
Видео: MPEG-4 Visual at ~ 2000 Кбит/сек: 720 x 400 (1.800) at 25.000 fps: 0.28 Бит/Пиксели
Аудио Rus: AC-3 at 192 Кбит/сек: 2 канала, 48,0 КГц |AlexFilm|
Аудио Eng: AC-3 at 192 Кбит/сек: 2 канала, 48,0 КГц |Original|
Cубтитры: русские (Notabenoid)
- -
Общее
Полное имя : E:\_Сериалы\Fortitude Season 1 CasStudio.TV\Fortitude.S01E01.WEB-DLRip.DUAL.CasStudio.TV.avi
Формат : AVI
Формат/Информация : Audio Video Interleave
Размер файла : 821 Мбайт
Продолжительность : 47 м. 51 с.
Общий поток : 2398 Кбит/сек
Программа кодирования : VirtualDubMod 1.5.10.3 | www.virtualdub-fr.org || (build 2550/release)
Библиотека кодирования : VirtualDubMod build 2550/release
Видео
Идентификатор : 0
Формат : MPEG-4 Visual
Профиль формата : Advanced [email protected]
Параметр BVOP формата : 1
Параметр QPel формата : Нет
Параметр GMC формата : Без точки перехода
Параметр матрицы формата : Default (MPEG)
Идентификатор кодека : XVID
Идентификатор кодека/Подсказка : XviD
Продолжительность : 47 м. 51 с.
Битрейт : 2000 Кбит/сек
Ширина : 720 пикселей
Высота : 400 пикселей
Соотношение сторон : 16:9
Частота кадров : 25,000 кадров/сек
Цветовое пространство : YUV
Субдискретизация насыщенности : 4:2:0
Битовая глубина : 8 бит
Тип развёртки : Прогрессивная
Метод сжатия : С потерями
Бит/(Пиксели*Кадры) : 0.278
Размер потока : 684 Мбайт (83%)
Библиотека кодирования : XviD 65
Аудио #1
Идентификатор : 1
Формат : AC-3
Формат/Информация : Audio Coding 3
Расширение режима : CM (complete main)
Параметр Endianness формата : Big
Идентификатор кодека : 2000
Продолжительность : 47 м. 51 с.
Вид битрейта : Постоянный
Битрейт : 192 Кбит/сек
Каналы : 2 канала
Расположение каналов : Front: L R
Частота : 48,0 КГц
Частота кадров : 31,250 кадров/сек (1536 spf)
Битовая глубина : 16 бит
Метод сжатия : С потерями
Размер потока : 65,7 Мбайт (8%)
Выравнивание : Разделение по промежуткам
Продолжительность промежутка : 40 мс. (1,00 видеокадр)
Время предзагрузки промежутка : 500 мс.
Аудио #2
Идентификатор : 2
Формат : AC-3
Формат/Информация : Audio Coding 3
Расширение режима : CM (complete main)
Параметр Endianness формата : Big
Идентификатор кодека : 2000
Продолжительность : 47 м. 51 с.
Вид битрейта : Постоянный
Битрейт : 192 Кбит/сек
Каналы : 2 канала
Расположение каналов : Front: L R
Частота : 48,0 КГц
Частота кадров : 31,250 кадров/сек (1536 spf)
Битовая глубина : 16 бит
Метод сжатия : С потерями
Размер потока : 65,7 Мбайт (8%)
Выравнивание : Разделение по промежуткам
Продолжительность промежутка : 40 мс. (1,00 видеокадр)
Время предзагрузки промежутка : 500 мс.
-
-Скриншоты:
-
-
1. Открыть торрент
2. Снять галки с тех файлов торрента, которые мы не хотим закачивать. Оставляем только на нужных нам файлах (файле).
3. Нажать О.К.
В клиенте utorrent
Инструкция
1) Открыть торрент

2) Снять галки с тех файлов торрента, которые мы не хотим закачивать:
* либо вручную, снимая с каждого файла галку( скрин №1)
* либо, нажав кнопку "Снять метки (Select None)", сняв сразу со всех файлов(скрин №2)
№1

№2

Оставляем только на нужных нам файлах (файле).

3)Нажать О.К
-Приятного просмотра!!!-
Download / Скачать

Хотите скачать бесплатно? Зарегистрируйтесь на сайте (ссылка на регистрацию). Pirat.ca - самый быстрый торрент трекер в рунете!

Как скачивать  ·   Что такое торрент  ·   Рейтинг и ограничения



Последний раз редактировалось: kugesan (2017-02-17 17:08), всего редактировалось 17 раз(а)

pvm

Корсар

Пост 18-Фев-2017 00:52 (спустя 2 года)

[Q] 

Может кто отпишется о сериале?
[Профиль]  [ЛС] 

fatal1ty110

Штурман

Пост 18-Фев-2017 10:59 (спустя 10 часов)

[Q] 

Мне понравился !COOL! Одобрямс!
[Профиль]  [ЛС] 
Показать сообщения:    
Ответить на тему

Текущее время: Сегодня 07:15

Часовой пояс: GMT + 4



Вы не можете начинать темы
Вы не можете отвечать на сообщения
Вы не можете редактировать свои сообщения
Вы не можете удалять свои сообщения
Вы не можете голосовать в опросах
Вы не можете прикреплять файлы к сообщениям
Вы не можете скачивать файлы

▼ Вниз