ML
     
  Уважаемый Гость!
Вы можете поддержать проект и зарегистрироваться у наших партнеров - онлайн-стратегия MyLands. При регистрации в игре Вы получите код, который сможете активировать после регистрации на pirat.ca и получить 1000 дублонов.

Ваш код:
34514219cfad5497a1822ecc1269bea77988f9aa
 
     

Власть в ночном городе / Power / Сезон: 2 / Полный / Серии: 10 из 10 (Джон Дэвид Коулз / John David Coles ...) [2015 г., драма, криминал, ..., HDTVRip] MVO (Amedia) + Original (Eng) + Sub (rus)

Ответить на тему
 
Автор
Сообщение

Пост 30-Янв-2015 00:30

[Q] 

kugesan

-Власть в ночном городе / Power
«Choose wisely»
-- Страна: США
Жанр: драма, криминал, ...
Год выпуска: 2015 г.-Премьера (мир): 7 июня 2014
Премьера (РФ): 8 июня 2014-Озвучка: Студия
Перевод: Многоголосый закадровый, профессиональный
Оригинальный аудиопоток: английский-Режиссер: Джон Дэвид Коулз / John David Coles, Энтони Хемингуэй / Anthony Hemingway, Кари Скогланд / Kari Skogland ...-В ролях: Омари Хардвик, Лела Лорен, Нэтари Наутон, Джозеф Сикора, Энди Бин, Синква Уоллс, Дж.Р. Рамирез, Луис Рамос, Люси Уолтерс, Шэйн Джонсон-Описание:
Продолжение криминальной драмы от исполнительного продюсера Кертиса Джексона, более известного как 50 Cent. Высшее общество не приняло «Призрака», и теперь у него есть лишь один выход - стать крупнейшим наркодельцом в США. Противостояние колумбийского картеля, нью-йоркских гангстеров и ФБР начинается. Сериал рекомендован к просмотру в бронежилете.-Сезон: 2
Серии: 10 из 10 серий
Продолжительность: ~ 00:57:38 мин серия-
Качество видео: HDTVRip
Контейнер: AVI
Видео кодек: XviD
Аудио кодек: AC-3
Видео: MPEG-4 Visual at 1500 Кбит/сек: 720 x 400 (1.800) at 25.000 fps: 0.20 Бит/Пиксели
Аудио Rus: AC-3 at 192 Кбит/сек: 2 канала, 48,0 КГц |Amedia|
Аудио Eng: AC-3 at 192 Кбит/сек: 2 канала, 48,0 КГц |Original|
Субтитры: Русские
Формат: softsub (SRT)
- -
  • Последствия (Consequences)
  • Нет друзей на улице (No Friends on the Street)
  • Как мы - любая другая пара (Like We're Any Other Couple)
  • Вы единственный человек, которому я могу доверять (You're the Only Person I Can Trust)
  • Кто Вы и кем Вы хотите быть (Who You Are and Who You Want to Be)
  • Почему ее? (Why Her?)
  • Вы не человек (You're Not the Man)
  • Тройка продвигается вперед (Three Moves Ahead)
  • Время (Time's Up)
  • Призрак мертв (Ghost Is Dead)
Общее
Полное имя : E:\_Сериалы\_Сериалы\Власть\Power.S02.CasStudio\Power.S02E01.HDTVRip.CasStudio.avi
Формат : AVI
Формат/Информация : Audio Video Interleave
Размер файла : 782 Мбайт
Продолжительность : 57 м.
Общий поток : 1898 Кбит/сек
Программа кодирования : VirtualDubMod 1.5.10.2 (build 2540/release)
Библиотека кодирования : VirtualDubMod build 2540/release
Видео
Идентификатор : 0
Формат : MPEG-4 Visual
Профиль формата : Advanced [email protected]
Параметр BVOP формата : 2
Параметр QPel формата : Нет
Параметр GMC формата : Без точки перехода
Параметр матрицы формата : Default (MPEG)
Идентификатор кодека : XVID
Идентификатор кодека/Подсказка : XviD
Продолжительность : 57 м.
Битрейт : 1500 Кбит/сек
Ширина : 720 пикселей
Высота : 400 пикселей
Соотношение сторон : 16:9
Частота кадров : 25,000 кадров/сек
Цветовое пространство : YUV
Субдискретизация насыщенности : 4:2:0
Битовая глубина : 8 бит
Тип развёртки : Прогрессивная
Метод сжатия : С потерями
Бит/(Пиксели*Кадры) : 0.208
Размер потока : 618 Мбайт (79%)
Библиотека кодирования : XviD 1.2.0.dev47 (UTC 2006-11-01)
Аудио #1
Идентификатор : 1
Формат : AC-3
Формат/Информация : Audio Coding 3
Расширение режима : CM (complete main)
Параметр Endianness формата : Big
Идентификатор кодека : 2000
Продолжительность : 57 м.
Вид битрейта : Постоянный
Битрейт : 192 Кбит/сек
Каналы : 2 канала
Расположение каналов : Front: L R
Частота : 48,0 КГц
Метод сжатия : С потерями
Размер потока : 79,1 Мбайт (10%)
Выравнивание : Разделение по промежуткам
Продолжительность промежутка : 40 мс. (1,00 видеокадр)
Время предзагрузки промежутка : 500 мс.
Аудио #2
Идентификатор : 2
Формат : AC-3
Формат/Информация : Audio Coding 3
Расширение режима : CM (complete main)
Параметр Endianness формата : Big
Идентификатор кодека : 2000
Продолжительность : 57 м.
Вид битрейта : Постоянный
Битрейт : 192 Кбит/сек
Каналы : 2 канала
Расположение каналов : Front: L R
Частота : 48,0 КГц
Метод сжатия : С потерями
Размер потока : 79,1 Мбайт (10%)
Выравнивание : Разделение по промежуткам
Продолжительность промежутка : 40 мс. (1,00 видеокадр)
Время предзагрузки промежутка : 500 мс.
-
-Скриншоты:
-
-
1. Открыть торрент
2. Снять галки с тех файлов торрента, которые мы не хотим закачивать. Оставляем только на нужных нам файлах (файле).
3. Нажать О.К.
В клиенте utorrent
Инструкция
1) Открыть торрент

2) Снять галки с тех файлов торрента, которые мы не хотим закачивать:
* либо вручную, снимая с каждого файла галку( скрин №1)
* либо, нажав кнопку "Снять метки (Select None)", сняв сразу со всех файлов(скрин №2)
№1

№2

Оставляем только на нужных нам файлах (файле).

3)Нажать О.К
-Добавлена десятая, заключительная, серия второго сезона
Download / Скачать

Хотите скачать бесплатно? Зарегистрируйтесь на сайте (ссылка на регистрацию). Pirat.ca - самый быстрый торрент трекер в рунете!

Как скачивать  ·   Что такое торрент  ·   Рейтинг и ограничения



Последний раз редактировалось: kugesan (2015-08-20 12:58), всего редактировалось 20 раз(а)

kugesan ®

56614

Пост 20-Авг-2015 12:58 (спустя 6 месяцев 21 день)

[Q] 

Добавлена десятая, заключительная, серия второго сезона

_________________

В мире две бесконечности: вселенная и человеческая глупость - Альберт Эйнштен
«Можно вытащить человека из грязи, но нельзя вытащить грязь из человека»!
[Профиль]  [ЛС] 

Пост 20-Авг-2015 22:11 (спустя 9 часов)

Топик был перенесен из форума Сериалы в эфире в форум Зарубежные сериалы
Андря
 
Показать сообщения:    
Ответить на тему

Текущее время: Сегодня 07:48

Часовой пояс: GMT + 4



Вы не можете начинать темы
Вы не можете отвечать на сообщения
Вы не можете редактировать свои сообщения
Вы не можете удалять свои сообщения
Вы не можете голосовать в опросах
Вы не можете прикреплять файлы к сообщениям
Вы не можете скачивать файлы

▼ Вниз