ML
     
  Уважаемый Гость!
Вы можете поддержать проект и зарегистрироваться у наших партнеров - онлайн-стратегия MyLands. При регистрации в игре Вы получите код, который сможете активировать после регистрации на pirat.ca и получить 1000 дублонов.

Ваш код:
4fbd9898b6f10799a3e8edf60f31febd2bc15453
 
     

Бэкстром / Backstrom / Сезон: 1 / Серии: 1-13 из 13 (Hart Hanson / Харт Хэнсон) [2015 г., Детективная драмеди, WEB-DLRip] MVO (ViruseProject)

Ответить на тему
 
Автор
Сообщение

Пост 12-Фев-2015 14:29

[Q] 

UrbanVampire

Корсар

Бэкстром / Backstrom
Сезон 1, серии 1-13 из 13ти
Производство: США, FOX
Жанр: Детективная драмеди
Год выпуска: 2015 г.
Продолжительность: 13 серий по ~00:45
Мировая премьера: 22 января 2015
Перевод: Профессиональный (многоголосый, закадровый) [ViruseProject]
Режиссер: Hart Hanson / Харт Хэнсон
В ролях: Рэйн Уилсон, Женевьева Энджелсон, Пейдж Кеннеди, Кристоффер Полаха, Деннис Хэйсберт, Беатрис Роузен, Томас Деккер
Описание: Детектив Эверетт Бэкстром (Рэйн Уилсон) - грубый, вспыльчивый, страдающий избыточным весом, пристрастием к алкоголю и постоянно занимающийся саморазрушением, возглавляет специальный отдел полиции, раскрывающий самые запутанные дела.
Новый детективный телесериал, снятый по мотивам серии романов шведского писателя Лейфа Г. В. Перссона.

Роли озвучивали: Елена Емельянова, Полина Касаткина, Алексей Кизуб, Валерий Смекалов
Перевод на русский язык, работа с видео: Евгений Шаров
Редакция перевода: Анна Марченко
Монтаж, сведение звука: Виталий Емельянов

Качество видео: WEB-DLRip
Контейнер: MKV
Видео кодек: XviD
Аудио кодек: MP3
Видео: Xvid 720x400 23.976fps ~1500 kbps
Аудио: MP3 48000Hz stereo 192 kbps
Cубтитры: отсутствуют
General
Complete name : F:\_Мои рипы\Serials - Сериалы\Backstrom - Бэкстром\Backstrom.S01.ViruseProject\Backstrom.s01e01.ViruseProject.avi
Format : AVI
Format/Info : Audio Video Interleave
File size : 554 MiB
Duration : 45mn 28s
Overall bit rate : 1 703 Kbps
Writing application : VirtualDubMod 1.5.10.2 (build 2540/release)
Writing library : VirtualDubMod build 2540/release
Video
ID : 0
Format : MPEG-4 Visual
Format profile : Advanced [email protected]
Format settings, BVOP : Yes
Format settings, QPel : No
Format settings, GMC : No warppoints
Format settings, Matrix : Default (H.263)
Codec ID : XVID
Codec ID/Hint : XviD
Duration : 45mn 28s
Bit rate : 1 502 Kbps
Width : 720 pixels
Height : 400 pixels
Display aspect ratio : 16:9
Frame rate : 23.976 fps
Color space : YUV
Chroma subsampling : 4:2:0
Bit depth : 8 bits
Scan type : Progressive
Compression mode : Lossy
Bits/(Pixel*Frame) : 0.218
Stream size : 488 MiB (88%)
Writing library : XviD 1.2.1 (UTC 2008-12-04)
Audio
ID : 1
Format : MPEG Audio
Format version : Version 1
Format profile : Layer 3
Mode : Joint stereo
Mode extension : MS Stereo
Codec ID : 55
Codec ID/Hint : MP3
Duration : 45mn 28s
Bit rate mode : Constant
Bit rate : 192 Kbps
Channel count : 2 channels
Sampling rate : 48.0 KHz
Compression mode : Lossy
Stream size : 62.4 MiB (11%)
Alignment : Aligned on interleaves
Interleave, duration : 42 ms (1.00 video frame)
Interleave, preload duration : 504 ms
Writing library : LAME3.90.3
Download / Скачать

Хотите скачать бесплатно? Зарегистрируйтесь на сайте (ссылка на регистрацию). Pirat.ca - самый быстрый торрент трекер в рунете!

Как скачивать  ·   Что такое торрент  ·   Рейтинг и ограничения



Последний раз редактировалось: UrbanVampire (2015-05-03 16:03), всего редактировалось 12 раз(а)

Пост 12-Фев-2015 16:23 (спустя 1 час 53 минуты)

Топик был перенесен из форума Зарубежные сериалы (Трюм) в форум Сериалы в эфире
Андря
 

UrbanVampire ®

Корсар

1077

Пост 15-Фев-2015 20:06 (спустя 3 дня)

[Q] 

добавлена 2я серия.
[Профиль]  [ЛС] 

UrbanVampire ®

Корсар

1077

Пост 23-Фев-2015 22:29 (спустя 8 дней)

[Q] 

добавлена 3я серия
[Профиль]  [ЛС] 

UrbanVampire ®

Корсар

1077

Пост 24-Фев-2015 21:21 (спустя 22 часа)

[Q] 

...и 4я тоже :)
[Профиль]  [ЛС] 

DenisLS

Шкипер

Пост 25-Фев-2015 01:28 (спустя 4 часа)

[Q] 

Как сериал достойный? Автору респект!!!

_________________
[Профиль]  [ЛС] 

UrbanVampire ®

Корсар

1077

Пост 12-Мар-2015 16:49 (спустя 15 дней)

[Q] 

6я на раздаче
[Профиль]  [ЛС] 

UrbanVampire ®

Корсар

1077

Пост 14-Мар-2015 08:04 (спустя 1 день 15 часов)

[Q] 

8я серия выйдет в оригинале 27 марта 2015 года.
[Профиль]  [ЛС] 

NIKROLUNGER

Флибустьер

60

Пост 15-Апр-2015 07:36 (спустя 1 месяц)

[Q] 

Ёпт, 6 минут смотрю, шуток, как на КВН bj
[Профиль]  [ЛС] 

UrbanVampire ®

Корсар

1077

Пост 03-Май-2015 16:03 (спустя 18 дней)

[Q] 

...и на раздаче полный сезон.
[Профиль]  [ЛС] 

Пост 03-Май-2015 19:30 (спустя 3 часа)

Топик был перенесен из форума Сериалы в эфире в форум Зарубежные сериалы
kugesan
 
Показать сообщения:    
Ответить на тему

Текущее время: Сегодня 20:02

Часовой пояс: GMT + 4



Вы не можете начинать темы
Вы не можете отвечать на сообщения
Вы не можете редактировать свои сообщения
Вы не можете удалять свои сообщения
Вы не можете голосовать в опросах
Вы не можете прикреплять файлы к сообщениям
Вы не можете скачивать файлы

▼ Вниз