ML
     
  Уважаемый Гость!
Вы можете поддержать проект и зарегистрироваться у наших партнеров - онлайн-стратегия MyLands. При регистрации в игре Вы получите код, который сможете активировать после регистрации на pirat.ca и получить 1000 дублонов.

Ваш код:
ba41f7961e0b4717aed6a401d955262223b8f6c4
 
     

Наши матери, наши отцы / Unsere Mütter, unsere Väter / Сезон: 1 / Серии: 1-3 из 3 (Филипп Кадельбах / Philippe Kadel′bah) [2013 г., драма, военный, история, HDRip] MVO [+ Original (Ger)] (RG.Paravozik)

Ответить на тему
 
Автор
Сообщение

Пост 15-Фев-2015 00:31

[Q] 

Элез

Флибустьер

- Наши матери, наши отцы / Unsere Mütter, unsere Väter--
Производство: Германия
Жанр: драма, военный, история
Год выпуска: 2013 г.
Продолжительность:3х ~01:30:00
Мировая премьера: 17 марта 2013
Перевод: Любительский (многоголосый, закадровый) [RG.Paravozik]
Оригинальный аудиопоток: немецкий
Режиссер: Филипп Кадельбах / Philippe Kadel′bah-В ролях: Фолькер Брух, Том Шиллинг, Катарина Шюттлер, Людвиг Трепте, Мириам Штайн, Марк Вашке, Генриетта Рихтер-Роль, Готц Шуберт, Кристиана Пауль, Сильвестр Грот и др.-Описание: Июнь 41-го года. Пятеро друзей встречаются в маленьком берлинском кафе,чтобы проводить троих из них на Восточный фронт. Они молоды, они считают,что весь мир лежит перед ними, надо только его завоевать. А дальше начинается ад. Ад русской зимы 41-го года и ад Курской битвы, ад концлагеря Заксенхаузен и ад берлинской тюрьмы Шарлоттенбург, ад фронтового госпиталя и ад штрафного батальона вермахта. Они вновь встречаются в этом самом кафе летом 45-го. Только они уже совсем другие.-
Качество видео: HDRip
Контейнер: AVI
Видео кодек: XviD
Аудио кодек: MP3
Видео: MPEG-4 Visual at 1601 Кбит/сек : 720 x 400 at 25.000 fps Бит/Пиксели*Кадры : 0.222
Аудио: MPEG Audio at 128 Кбит/сек : 2 канала, 48,0 КГц ru
Аудио #2: MPEG Audio at 128 Кбит/сек : 2 канала, 48,0 КГц Ger
Релиз от: при поддержке
Cубтитры: отсутствуют
Общее
Полное имя : D:\µTorrent\razda4a\Наши матери, наши отцы [RG.Paravozik]\Unsere.muetter.unsere.vaeter.e01.HDRip.PROPER.rus.ger.RG.Paravozik.avi
Формат : AVI
Формат/Информация : Audio Video Interleave
Размер файла : 1,19 Гбайт
Продолжительность : 1 ч. 30 м.
Общий поток : 1872 Кбит/сек
Программа кодирования : VirtualDubMod 1.5.10.2 (build 2540/release)
Библиотека кодирования : VirtualDubMod build 2540/release
Видео
Идентификатор : 0
Формат : MPEG-4 Visual
Профиль формата : Advanced [email protected]
Параметр BVOP формата : 2
Параметр QPel формата : Нет
Параметр GMC формата : Без точки перехода
Параметр матрицы формата : Default (MPEG)
Идентификатор кодека : XVID
Идентификатор кодека/Подсказка : XviD
Продолжительность : 1 ч. 30 м.
Битрейт : 1601 Кбит/сек
Ширина : 720 пикселей
Высота : 400 пикселей
Соотношение сторон : 16:9
Частота кадров : 25,000 кадров/сек
Цветовое пространство : YUV
Субдискретизация насыщенности : 4:2:0
Битовая глубина : 8 бит
Тип развёртки : Прогрессивная
Метод сжатия : С потерями
Бит/(Пиксели*Кадры) : 0.222
Размер потока : 1,01 Гбайт (86%)
Библиотека кодирования : XviD 1.2.1 (UTC 2008-12-04)
Аудио #1
Идентификатор : 1
Формат : MPEG Audio
Версия формата : Version 1
Профиль формата : Layer 3
Режим : Joint stereo
Расширение режима : MS Stereo
Идентификатор кодека : 55
Идентификатор кодека/Подсказка : MP3
Продолжительность : 1 ч. 30 м.
Вид битрейта : Постоянный
Битрейт : 128 Кбит/сек
Каналы : 2 канала
Частота : 48,0 КГц
Метод сжатия : С потерями
Размер потока : 83,1 Мбайт (7%)
Выравнивание : Соединение по промежуткам
Продолжительность промежутка : 40 мс. (1,00 видеокадр)
Время предзагрузки промежутка : 504 мс.
Аудио #2
Идентификатор : 2
Формат : MPEG Audio
Версия формата : Version 1
Профиль формата : Layer 3
Идентификатор кодека : 55
Идентификатор кодека/Подсказка : MP3
Продолжительность : 1 ч. 30 м.
Вид битрейта : Постоянный
Битрейт : 128 Кбит/сек
Каналы : 2 канала
Частота : 48,0 КГц
Метод сжатия : С потерями
Размер потока : 83,1 Мбайт (7%)
Выравнивание : Соединение по промежуткам
Продолжительность промежутка : 40 мс. (1,00 видеокадр)
Время предзагрузки промежутка : 504 мс.
Библиотека кодирования : LAME3.99r
Настройки программы : -m s -V 4 -q 2 -lowpass 17 -b 128
Download / Скачать

Хотите скачать бесплатно? Зарегистрируйтесь на сайте (ссылка на регистрацию). Pirat.ca - самый быстрый торрент трекер в рунете!

Как скачивать  ·   Что такое торрент  ·   Рейтинг и ограничения

Пост 15-Фев-2015 12:46 (спустя 12 часов)

Топик был перенесен из форума Зарубежные сериалы (Трюм) в форум Зарубежные сериалы
Андря
 

Ares13

Пост 15-Фев-2015 14:14 (спустя 13 часов)

[Q] 

Замечательный фильм.

_________________
[Профиль]  [ЛС] 

De Puta Madre

Морской Волк

Пост 15-Фев-2015 17:26 (спустя 3 часа)

[Q] 

Спасибо, отличный фильм!
[Профиль]  [ЛС] 

янка-сан

Гроза морей

Пост 18-Дек-2015 21:52 (спустя 10 месяцев 3 дня)

[Q] 

спасибо Лови бочку
[Профиль]  [ЛС] 

vladimir_vs

Морской Волк

Пост 22-Фев-2016 12:48 (спустя 2 месяца 3 дня)

[Q] 

Раздаю только по выходным и после 19:30 по будням

_________________
Мир реальный - лишь грезы,
Все в нем - сон, полуложь,
Радость, боль и угроза -
Все иначе, чем ждешь.
[Профиль]  [ЛС] 
Показать сообщения:    
Ответить на тему

Текущее время: Сегодня 14:48

Часовой пояс: GMT + 4



Вы не можете начинать темы
Вы не можете отвечать на сообщения
Вы не можете редактировать свои сообщения
Вы не можете удалять свои сообщения
Вы не можете голосовать в опросах
Вы не можете прикреплять файлы к сообщениям
Вы не можете скачивать файлы

▼ Вниз