ML
     
  Уважаемый Гость!
Вы можете поддержать проект и зарегистрироваться у наших партнеров - онлайн-стратегия MyLands. При регистрации в игре Вы получите код, который сможете активировать после регистрации на pirat.ca и получить 1000 дублонов.

Ваш код:
fe4e93b754a7c2b306fcfc8bc32532ea1cf59d3b
 
     

Флэш / The Flash / Сезон: 1 / Серии: 1-23 из 23 (Дэвид Наттер / David Nutter) [2014 г., фантастика, фэнтези, боевик, драма, приключения, WEB-DL 720р] MVO (BaibaKo) + Original (Eng) [Полный сезон]

Ответить на тему
 
Автор
Сообщение

Пост 17-Фев-2015 22:46

[Q] 

LPPI

Флэш / The Flash - Русское название: Флэш
Оригинальное название: The Flash
Страна: США
Год выпуска: 2014
Жанр: фантастика, фэнтези, боевик, драма, приключения, ...-Релиз:
Перевод: Многоголосый закадровый, профессиональный
Оригинальный аудиопоток: английский-Автор перевода: Наталья Черненко
Озвучка: Артемий Мирон, Владимир Курдов, Алексей Кузнецов, Светлана Доманова и Юлия Котурбаш
Монтаж: Виталий Ткаченко
Обложка: tvblog -Режиссер: Дэвид Наттер / David Nutter, Джесси Уарн / Jesse Warn
В главных ролях: Грант Гастин, Кэндис Паттон, Рик Коснетт, Даниэль Панабэйкер, Карлос Вальдес, Томас Кэвэна, Джесси Л. Мартин, Джон Уэсли Шипп, Стивен Амелл, Ёсиэ Бэнкрофт-Описание фильма:
Из-за несчастного случая судмедэксперт Барри Аллен приобретает способность передвигаться с невероятной скоростью. Этот случай делает из него супергероя, которым он всегда мечтал стать. Защищая город, как ангел-хранитель, делая невозможное, спасая жизни со скоростью вспышки, по подсказке Оливера Куина (Стрела), он берёт себе и соответствующее имя - Флэш.
Сериал основан на супергерое DC Comics по имени Флэш (Барри Аллен), борце с преступностью в костюме, который был создан Робертом Кнайгером, Джоном Брумом и Кармином Инфантино. Является спин-оффом сериала «Стрела» и происходит в той же вселенной.-Дата мировой премьеры: 7 октября 2014-Сезон: 1
Серии: 23 из 23 серий
Продолжительность: ~ 00:43:00 серия-Качество видео: WEB-DL 720р
Формат: MKV
Видеокодек: AVC ([email protected])
Аудиокодек: AC-3
Видео: AVC at 4173 Кбит/сек: 1280 x 718 (1.783) at 23.976 fps
Аудио Rus: AC-3 at 384 Кбит/сек: 6 каналов, 48,0 КГц |BaibaKo|
Аудио Eng: AC-3 at 384 Кбит/сек: 6 каналов, 48,0 КГц |Original|
Cубтитры: отсутствуют
- -
Эпизод 01 Pilot / Пилот
Эпизод 02 Fastest Man Alive / Самый быстрый человек в мире
Эпизод 03 Things You Can't Outrun / Кое-что перегнать нельзя
Эпизод 04 Going Rogue / Самоволка
Эпизод 05 Plastique / ПластИк
Эпизод 06 The Flash is Born / Рождение Флэша
Эпизод 07 Power Outage / Отключение электроэнергии
Эпизод 08 Flash vs Arrow / Флэш против Стрелы
Эпизод 09 The Man In The Yellow Suit / Человек в жёлтом костюме
Эпизод 10 Revenge of the Rogues / Месть негодяев
Эпизод 11 The Sound And The Fury / Звук и ярость
Эпизод 12 Crazy for You / Без ума от тебя
Эпизод 13 The Nuclear Man / Ядерный человек
Эпизод 14 Fallout / Последствия
Эпизод 15 Out of Time / Асинхронизация
Эпизод 16 Rogue Time / Коварное время
Эпизод 17 Tricksters / Ловкачи
Эпизод 18 All Star Team Up / Звёздная команда в сборе
Эпизод 19 Who Is Harrison Wells / Кто такой Харрисон Уэллс
Эпизод 20 The Trap / Западня
Эпизод 21 Grodd Lives / Гродд жив
Эпизод 22 Rogue Air / Время негодяев
Эпизод 23 Fast Enough / Достаточно быстрый (Финал сезона)
-
Код:
Общее
Уникальный идентификатор                 : 221058505220840553502930426069958412512 (0xA64E51C890A78E2BAAB71288CB5A48E0)
Полное имя                               : E:\_Сериалы\Флэш\The Flash.s01.BaibaKo\The.Flash.s01e01.HD720p.WEB-DL.Rus.Eng.BaibaKo.tv.mkv
Формат                                   : Matroska
Версия формата                           : Version 4 / Version 2
Размер файла                             : 1,57 Гбайт
Продолжительность                        : 44 м.
Общий поток                              : 5041 Кбит/сек
Дата кодирования                         : UTC 2014-10-08 10:20:49
Программа кодирования                    : mkvmerge v6.7.0 ('Back to the Ground') 64bit built on Jan  8 2014 15:10:52
Библиотека кодирования                   : libebml v1.3.0 + libmatroska v1.4.1
Видео
Идентификатор                            : 1
Формат                                   : AVC
Формат/Информация                        : Advanced Video Codec
Профиль формата                          : [email protected]
Параметр CABAC формата                   : Нет
Параметр ReFrames формата                : 2 кадра
Параметр GOP формата                     : N=1
Идентификатор кодека                     : V_MPEG4/ISO/AVC
Продолжительность                        : 44 м.
Битрейт                                  : 4173 Кбит/сек
Ширина                                   : 1280 пикселей
Высота                                   : 718 пикселей
Соотношение сторон                       : 16:9
Режим частоты кадров                     : Постоянный
Частота кадров                           : 23,976 кадра/сек
Цветовое пространство                    : YUV
Субдискретизация насыщенности            : 4:2:0
Битовая глубина                          : 8 бит
Тип развёртки                            : Прогрессивная
Бит/(Пиксели*Кадры)                      : 0.189
Размер потока                            : 1,30 Гбайт (83%)
Язык                                     : English
Default                                  : Да
Forced                                   : Нет
Основные цвета                           : BT.709
Характеристики трансфера                 : BT.709
Коэффициенты матрицы                     : BT.709
Аудио #1
Идентификатор                            : 2
Формат                                   : AC-3
Формат/Информация                        : Audio Coding 3
Расширение режима                        : CM (complete main)
Параметр Endianness формата              : Big
Идентификатор кодека                     : A_AC3
Продолжительность                        : 44 м.
Вид битрейта                             : Постоянный
Битрейт                                  : 384 Кбит/сек
Каналы                                   : 6 каналов
Расположение каналов                     : Front: L C R, Side: L R, LFE
Частота                                  : 48,0 КГц
Битовая глубина                          : 16 бит
Метод сжатия                             : С потерями
Размер потока                            : 122 Мбайт (8%)
Язык                                     : Russian
Default                                  : Да
Forced                                   : Нет
Аудио #2
Идентификатор                            : 3
Формат                                   : AC-3
Формат/Информация                        : Audio Coding 3
Расширение режима                        : CM (complete main)
Параметр Endianness формата              : Big
Идентификатор кодека                     : A_AC3
Продолжительность                        : 44 м.
Вид битрейта                             : Постоянный
Битрейт                                  : 384 Кбит/сек
Каналы                                   : 6 каналов
Расположение каналов                     : Front: L C R, Side: L R, LFE
Частота                                  : 48,0 КГц
Битовая глубина                          : 16 бит
Метод сжатия                             : С потерями
Размер потока                            : 122 Мбайт (8%)
Язык                                     : English
Default                                  : Нет
Forced                                   : Нет
-
-Скриншоты:
-
-
1. Открыть торрент
2. Снять галки с тех файлов торрента, которые мы не хотим закачивать. Оставляем только на нужных нам файлах (файле).
3. Нажать О.К.
В клиенте utorrent
Инструкция
1) Открыть торрент

2) Снять галки с тех файлов торрента, которые мы не хотим закачивать:
* либо вручную, снимая с каждого файла галку( скрин №1)
* либо, нажав кнопку "Снять метки (Select None)", сняв сразу со всех файлов(скрин №2)
№1

№2

Оставляем только на нужных нам файлах (файле).

3)Нажать О.К
-Добавлена 23 серия первого сезона (Финал)
Download / Скачать

Хотите скачать бесплатно? Зарегистрируйтесь на сайте (ссылка на регистрацию). Pirat.ca - самый быстрый торрент трекер в рунете!

Как скачивать  ·   Что такое торрент  ·   Рейтинг и ограничения



Последний раз редактировалось: LPPI (2015-05-21 12:00), всего редактировалось 9 раз(а)

LPPI ®

137534

Пост 17-Фев-2015 22:46 (спустя 38 секунд)

[Q] 

Добавлена 13 серия первого сезона
[Профиль]  [ЛС] 

Пост 17-Фев-2015 22:50 (спустя 3 минуты)

Топик был перенесен из форума Зарубежные сериалы (Трюм) в форум Сериалы в эфире
Андря
 

GrappLeR

Шкипер

Пост 21-Фев-2015 01:33 (спустя 3 дня)

[Q] 

посмотрим Спасибо!!!
[Профиль]  [ЛС] 

LPPI ®

137534

Пост 19-Мар-2015 13:39 (спустя 26 дней)

[Q] 

Добавлена 14 серия первого сезонаДобавлено спустя 5 секунд:Добавлена 15 серия первого сезона
[Профиль]  [ЛС] 

LPPI ®

137534

Пост 26-Мар-2015 09:03 (спустя 6 дней)

[Q] 

Добавлена 16 серия первого сезона
[Профиль]  [ЛС] 

LPPI ®

137534

Пост 02-Апр-2015 18:28 (спустя 7 дней)

[Q] 

Добавлена 17 серия первого сезона
[Профиль]  [ЛС] 

vbFlick

Шкипер

Пост 02-Апр-2015 18:46 (спустя 17 минут)

[Q] 

дайте скачать, я до ночи на раздаче постою, а то как обычно выложат и в кусты...
[Профиль]  [ЛС] 

LPPI ®

137534

Пост 17-Апр-2015 16:45 (спустя 14 дней)

[Q] 

Добавлена 18 серия первого сезона
[Профиль]  [ЛС] 

LPPI ®

137534

Пост 24-Апр-2015 16:40 (спустя 6 дней)

[Q] 

Добавлена 19 серия первого сезона
[Профиль]  [ЛС] 

LPPI ®

137534

Пост 02-Май-2015 08:15 (спустя 7 дней)

[Q] 

Добавлена 20 серия первого сезона
[Профиль]  [ЛС] 

LPPI ®

137534

Пост 08-Май-2015 19:42 (спустя 6 дней)

[Q] 

Добавлена 21 серия первого сезона
[Профиль]  [ЛС] 

LPPI ®

137534

Пост 14-Май-2015 15:45 (спустя 5 дней)

[Q] 

Добавлена 22 серия первого сезона
[Профиль]  [ЛС] 

LPPI ®

137534

Пост 21-Май-2015 12:00 (спустя 6 дней)

[Q] 

Добавлена 23 серия первого сезона (Финал)
[Профиль]  [ЛС] 

police00

Боцман

Пост 21-Май-2015 20:07 (спустя 8 часов)

[Q] 

679765Добавлена 23 серия первого сезона (Финал)
Нету 23 серии,всего 19. Не стоит врать !!!!! anime68
[Профиль]  [ЛС] 

Пост 21-Май-2015 22:54 (спустя 2 часа 47 минут)

Топик был перенесен из форума Сериалы в эфире в форум Зарубежные сериалы
Андря
 
Показать сообщения:    
Ответить на тему

Текущее время: Сегодня 14:28

Часовой пояс: GMT + 4



Вы не можете начинать темы
Вы не можете отвечать на сообщения
Вы не можете редактировать свои сообщения
Вы не можете удалять свои сообщения
Вы не можете голосовать в опросах
Вы не можете прикреплять файлы к сообщениям
Вы не можете скачивать файлы

▼ Вниз