ML
     
  Уважаемый Гость!
Вы можете поддержать проект и зарегистрироваться у наших партнеров - онлайн-стратегия MyLands. При регистрации в игре Вы получите код, который сможете активировать после регистрации на pirat.ca и получить 1000 дублонов.

Ваш код:
5af7de75d3db09b6a37bc8bab71b0e87ccde73d6
 
     

Во все тяжкие / Breaking Bad / Сезон: 4 / Серии: 1-13 (13) (Адам Бернштейн / Adam Bernstein) [2011 г., триллер, драма, криминал, BDRip, 1080p] MVO (LostFilm, Foxcrime) + DVO (Кубик в Кубе) + Original (Eng) + Sub (Rus, Eng)

Ответить на тему
 
Автор
Сообщение

Пост 27-Фев-2015 19:14

[Q] 

TERMOS

Легенда

-Во все тяжкие / Breaking Bad
(4 сезон)
-- Год выпуска: 2011
Производство: США
Жанр: триллер, драма, криминал
Продолжительность: 13х ~00:48:00
Перевод: Любительский (двухголосый, закадровый) [Кубик в Кубе]
Перевод 2: Любительский (многоголосый, закадровый) [Lostfilm]
Перевод 3: Профессиональный (многоголосый, закадровый) [Foxcrime]
Оригинальный аудиопоток: английский
Режиссер: Адам Бернштейн / Adam Bernstein
В ролях: Брайан Крэнстон, Анна Ганн, Аарон Пол, Дин Норрис, Бетси Брандт, Эр Джей, Стивен Майкл Квезада, Кристен Риттер, Дэвид Хаус, Кармен Серано...
Описание: Основная канва сюжета развивается вокруг школьного учителя химии Уолтера Уайта, который узнаёт, что он болен раком лёгких. Учитывая сложное финансовое состояние дел семьи, а также перспективы (жена Уолтера, Скайлер, беременна вторым ребёнком, а у сына детский паралич), Уолтер решается на аферу по приготовлению наркотика метамфетамина. Для этого привлекается бывший ученик Джесси Пинкман, когда-то исключенный из школы при активном содействии Уолтера, недавно потерявший партнёра по изготовлению наркотика, знающий «бизнес».
Третий сезон великолепного сериала Во все тяжкие, расскажет:
После смерти Джейн, Уолтер и Джесси пошли своими жизненными путями. Гус предлагает Хайзенбергу работать на него. Он отстраивает для него супер лабораторию, по последнему слову, с условием, что в неделю Уайт будет производить 90 килограммов синего мет – амфетамина. Гус предлагает ему 3 миллиона долларов. Скайлер узнает о всех грязных делах своего мужа и подаёт на развод. Уолтера младшего она разумеется держит в неведении. Между тем, двое загадочных мексиканцев разыскивают Хайзенберга, чтоб отомстить ему за смерть Туко.- , , -Качество видео: BDRip
Контейнер: MKV
Стандарт разрешения: 1080p
Видео кодек: H.264/AVC
Аудио кодек: DTS, AC3
Видео: 1920x1080 (16:9), 23.976 fps, ~11.0 Mbps avg
Аудио : (RUS) 48 kHz, DTS, 5.1 ch, ~1510 kbps avg - Двухголосый закадровый, Кубик в Кубе
Аудио #2: (RUS) 48 kHz, DTS, 5.1 ch, ~1510 kbps avg - Многоголосый закадровый, LostFilm
Аудио #3: (RUS) 48 kHz, DTS, 5.1 ch, ~1510 kbps avg - Многоголосый закадровый, Foxcrime
Аудио #4: (RUS) 48 kHz, DTS, 5.1 ch, ~1510 kbps avg - Original
Аудио #5: (ENG) 48 kHz, AC3, 2/0 (L,R) ch, ~192 kbps avg - Commentary
Субтитры: Russian (Forced, Full), English
Аудиодорожки 1, 2, 3 - получены путем извлечения ядра DTS-HD MA из ремуксов hdclub.
Субтитры форсированные на надписи и полные от lostrator.
01: Box Cutter / Канцелярский нож
02: Thirty-Eight Snub / 38 Калибр
03: Open House / День Открытых Дверей
04: Bullet Points / Ключевые Моменты (Пулевые Отверстия)
05: Shotgun / Дробовик
06: Cornered / Припёртые к стенке
07: Problem Dog / Хромой Пёс
08: Hermanos / Братья
09: Bug / Жучок
10: Salud / На Здоровье!
11: Crawl Space / Подпол
12: End Times / Пора Заканчивать
13: Face Off / Без Лица
Код:
General
Complete name                    : T:\Uploads\Pirat.Ca\Breaking Bad - Season 4 (2011)[BDRip.1080p]\Breaking.Bad.S04E01.1080p.BluRay.mkv
Format                           : Matroska
File size                        : 5.68 GiB
Duration                         : 47mn 11s
Overall bit rate                 : 17.2 Mbps
Movie name                       : Breaking.Bad.S04E01.Box.Cutter.1080p.BluRay.DTS.x264-decibeL
Encoded date                     : UTC 2014-09-16 11:06:11
Writing application              : mkvmerge v2.0.2 ('You're My Flame') built on Feb 21 2007 23:40:55
Writing library                  : libebml v0.7.7 + libmatroska v0.8.1
Video
ID                               : 1
Format                           : AVC
Format/Info                      : Advanced Video Codec
Format profile                   : [email protected]
Format settings, CABAC           : Yes
Format settings, ReFrames        : 4 frames
Muxing mode                      : Container [email protected]
Codec ID                         : V_MPEG4/ISO/AVC
Duration                         : 47mn 11s
Bit rate                         : 11.0 Mbps
Width                            : 1 920 pixels
Height                           : 1 080 pixels
Display aspect ratio             : 16:9
Frame rate                       : 23.976 fps
Color space                      : YUV
Chroma subsampling               : 4:2:0
Bit depth                        : 8 bits
Scan type                        : Progressive
Bits/(Pixel*Frame)               : 0.221
Stream size                      : 3.51 GiB (62%)
Writing library                  : x264 core 129 r2245 bc13772
Encoding settings                : cabac=1 / ref=4 / deblock=1:-3:-3 / analyse=0x3:0x113 / me=umh / subme=10 / psy=1 / psy_rd=1.10:0.00 / mixed_ref=1 / me_range=64 / chroma_me=1 / trellis=2 / 8x8dct=1 / cqm=0 / deadzone=21,11 / fast_pskip=0 / chroma_qp_offset=0 / threads=3 / lookahead_threads=1 / sliced_threads=0 / nr=0 / decimate=1 / interlaced=0 / bluray_compat=0 / constrained_intra=0 / bframes=7 / b_pyramid=2 / b_adapt=2 / b_bias=0 / direct=3 / weightb=1 / open_gop=0 / weightp=2 / keyint=240 / keyint_min=23 / scenecut=40 / intra_refresh=0 / rc_lookahead=90 / rc=2pass / mbtree=1 / bitrate=11000 / ratetol=1.0 / qcomp=0.70 / qpmin=10 / qpmax=51 / qpstep=4 / cplxblur=20.0 / qblur=0.5 / vbv_maxrate=38000 / vbv_bufsize=30000 / nal_hrd=none / ip_ratio=1.40 / aq=1:0.90
Language                         : English
Audio #1
ID                               : 2
Format                           : DTS
Format/Info                      : Digital Theater Systems
Codec ID                         : A_DTS
Duration                         : 47mn 11s
Bit rate mode                    : Constant
Bit rate                         : 1 510 Kbps
Channel(s)                       : 6 channels
Channel positions                : Front: L C R, Side: L R, LFE
Sampling rate                    : 48.0 KHz
Bit depth                        : 16 bits
Stream size                      : 510 MiB (9%)
Title                            : Кубик в Кубе [DTS 6ch 1509 kbps]
Language                         : Russian
Audio #2
ID                               : 3
Format                           : DTS
Format/Info                      : Digital Theater Systems
Codec ID                         : A_DTS
Duration                         : 47mn 11s
Bit rate mode                    : Constant
Bit rate                         : 1 510 Kbps
Channel(s)                       : 6 channels
Channel positions                : Front: L C R, Side: L R, LFE
Sampling rate                    : 48.0 KHz
Bit depth                        : 16 bits
Stream size                      : 510 MiB (9%)
Title                            : Lostfilm [DTS 6ch 1509 kbps]
Language                         : Russian
Audio #3
ID                               : 4
Format                           : DTS
Format/Info                      : Digital Theater Systems
Codec ID                         : A_DTS
Duration                         : 47mn 11s
Bit rate mode                    : Constant
Bit rate                         : 1 510 Kbps
Channel(s)                       : 6 channels
Channel positions                : Front: L C R, Side: L R, LFE
Sampling rate                    : 48.0 KHz
Bit depth                        : 16 bits
Stream size                      : 510 MiB (9%)
Title                            : Foxcrime [DTS 6ch 1509 kbps]
Language                         : Russian
Audio #4
ID                               : 5
Format                           : DTS
Format/Info                      : Digital Theater Systems
Codec ID                         : A_DTS
Duration                         : 47mn 11s
Bit rate mode                    : Constant
Bit rate                         : 1 510 Kbps
Channel(s)                       : 6 channels
Channel positions                : Front: L C R, Side: L R, LFE
Sampling rate                    : 48.0 KHz
Bit depth                        : 24 bits
Stream size                      : 510 MiB (9%)
Title                            : Оригинал [DTS 6ch 1509 kbps]
Language                         : English
Audio #5
ID                               : 6
Format                           : AC-3
Format/Info                      : Audio Coding 3
Mode extension                   : CM (complete main)
Codec ID                         : A_AC3
Duration                         : 47mn 11s
Bit rate mode                    : Constant
Bit rate                         : 192 Kbps
Channel(s)                       : 2 channels
Channel positions                : Front: L R
Sampling rate                    : 48.0 KHz
Bit depth                        : 16 bits
Stream size                      : 64.8 MiB (1%)
Title                            : Commentary
Language                         : English
Text #1
ID                               : 7
Format                           : ASS
Codec ID                         : S_TEXT/ASS
Codec ID/Info                    : Advanced Sub Station Alpha
Title                            : Forced
Language                         : Russian
Text #2
ID                               : 8
Format                           : ASS
Codec ID                         : S_TEXT/ASS
Codec ID/Info                    : Advanced Sub Station Alpha
Title                            : Full
Language                         : Russian
Text #3
ID                               : 9
Format                           : ASS
Codec ID                         : S_TEXT/ASS
Codec ID/Info                    : Advanced Sub Station Alpha
Title                            : English
Language                         : English
Menu
00:00:00.000                     : en:Chapter 1
00:04:47.829                     : en:Chapter 2
00:16:28.613                     : en:Chapter 3
00:26:12.404                     : en:Chapter 4
00:37:31.458                     : en:Chapter 5
00:46:27.785                     : en:Chapter 6
Download / Скачать

Хотите скачать бесплатно? Зарегистрируйтесь на сайте (ссылка на регистрацию). Pirat.ca - самый быстрый торрент трекер в рунете!

Как скачивать  ·   Что такое торрент  ·   Рейтинг и ограничения

Пост 27-Фев-2015 22:03 (спустя 2 часа 49 минут)

Топик был перенесен из форума Зарубежные сериалы (Трюм) в форум Зарубежные сериалы
kugesan
 
Показать сообщения:    
Ответить на тему

Текущее время: Сегодня 14:08

Часовой пояс: GMT + 4



Вы не можете начинать темы
Вы не можете отвечать на сообщения
Вы не можете редактировать свои сообщения
Вы не можете удалять свои сообщения
Вы не можете голосовать в опросах
Вы не можете прикреплять файлы к сообщениям
Вы не можете скачивать файлы

▼ Вниз