ML
     
  Уважаемый Гость!
Вы можете поддержать проект и зарегистрироваться у наших партнеров - онлайн-стратегия MyLands. При регистрации в игре Вы получите код, который сможете активировать после регистрации на pirat.ca и получить 1000 дублонов.

Ваш код:
b70663c760e7cd2521b8e123786cdd788200e3bd
 
     

Батл Крик / Battle Creek / Сезон: 1 / Полный /Серии: 13 из 13 (Фэррен Блэкберн / Farren Blackburn ...) [2015г., драма, криминал, WEBDLRip] MVO (NewStudio) + Original (Eng)

Ответить на тему
 
Автор
Сообщение

Пост 03-Мар-2015 14:43

[Q] 

kugesan

Батл Крик / Battle Creek - Русское название: Батл Крик
Оригинальное название: Battle Creek
Производство: США
Год выпуска: 2015
Жанр: драма, криминал-Озвучка: Студия
Перевод: Многоголосый закадровый, профессиональный
Оригинальный аудиопоток: английский-Автор перевода: Александра Цернант
Постер: Vortex-Премьера (мир): 1 марта 2015-Режиссер: Эндрю Бернштейн / Andrew Bernstein, Дэниэл Эттиэс / Daniel Attias, Колин Бакси / Colin Bucksey, ...
В главных ролях: Джош Дюамель, Дин Уинтерс, Джанет МакТир, Кэл Пенн, Обри Доллар, Grapevine, Дэймон Херриман, Лиза Лапира, Джесси Фудрей, Мередит Итон, ...-Описание фильма:
Два детектива с разными взглядами на мир объединяются, чтобы очистить улицы Батл Крика, используя цинизм, коварство и обман…-Сезон: 1
Серии: 13 из 13 серий
Продолжительность: ~ 00:42:00 мин серия-Качество видео: WEBDLRip
Формат: AVI
Видеокодек: XviD
Аудиокодек: Mp3
Видео: MPEG-4 Visual at 1556 Кбит/сек: 720 x 400 (1.800) at 23.976 fps, 0.22 Бит/Пиксели
Аудио Rus: MPEG Audio at 128 Кбит/сек, 2 канала, 48,0 КГц |NewStudio|
Аудио Eng: MPEG Audio at 128 Кбит/сек, 2 канала, 48,0 КГц |Original|
- -
  • По-Батлкрикски (The Battle Creek Way)
  • Сиропность (Syruptitious)
  • Друг человека (Man's Best Friend)
  • Наследство (Heirlooms)
  • Старое пламя (Old Flames)
  • Праздничный убийца (Cereal Killers)
  • Маменький сынок (Mama's Boy)
  • Старые раны (Old Wounds)
  • Неуловимый (Gingerbread Man)
  • Стокгольм (Stockholm)
  • Передай другому (The Hand-Off)
  • Возвращение домой (Homecoming)
  • Сочувствуя дьяволу (Sympathy for the Devil)
-
Общее
Полное имя : E:\_Сериалы\_Сериалы\Батл Крик\Battle.Creek.s01.WEBDLRip.NewStudio.TV\Battle.Creek.s01e01.WEBDLRip.NewStudio.TV.avi
Формат : AVI
Формат/Информация : Audio Video Interleave
Размер файла : 550 Мбайт
Продолжительность : 42 м.
Общий поток : 1826 Кбит/сек
Программа кодирования : VirtualDubMod 1.5.10.2 (build 2540/release)
Библиотека кодирования : VirtualDubMod build 2540/release
Видео
Идентификатор : 0
Формат : MPEG-4 Visual
Профиль формата : Advanced [email protected]
Параметр BVOP формата : 2
Параметр QPel формата : Нет
Параметр GMC формата : Без точки перехода
Параметр матрицы формата : Default (MPEG)
Идентификатор кодека : XVID
Идентификатор кодека/Подсказка : XviD
Продолжительность : 42 м.
Битрейт : 1556 Кбит/сек
Ширина : 720 пикселей
Высота : 400 пикселей
Соотношение сторон : 16:9
Частота кадров : 23,976 кадра/сек
Цветовое пространство : YUV
Субдискретизация насыщенности : 4:2:0
Битовая глубина : 8 бит
Тип развёртки : Прогрессивная
Метод сжатия : С потерями
Бит/(Пиксели*Кадры) : 0.225
Размер потока : 469 Мбайт (85%)
Библиотека кодирования : XviD 64
Аудио #1
Идентификатор : 1
Формат : MPEG Audio
Версия формата : Version 1
Профиль формата : Layer 3
Режим : Joint stereo
Идентификатор кодека : 55
Идентификатор кодека/Подсказка : MP3
Продолжительность : 42 м.
Вид битрейта : Постоянный
Битрейт : 128 Кбит/сек
Каналы : 2 канала
Частота : 48,0 КГц
Метод сжатия : С потерями
Размер потока : 38,5 Мбайт (7%)
Выравнивание : Соединение по промежуткам
Продолжительность промежутка : 42 мс. (1,00 видеокадр)
Время предзагрузки промежутка : 504 мс.
Библиотека кодирования : LAME3.99r
Настройки программы : -m j -V 4 -q 2 -lowpass 17 -b 128
Аудио #2
Идентификатор : 2
Формат : MPEG Audio
Версия формата : Version 1
Профиль формата : Layer 3
Режим : Joint stereo
Идентификатор кодека : 55
Идентификатор кодека/Подсказка : MP3
Продолжительность : 42 м.
Вид битрейта : Постоянный
Битрейт : 128 Кбит/сек
Каналы : 2 канала
Частота : 48,0 КГц
Метод сжатия : С потерями
Размер потока : 38,5 Мбайт (7%)
Выравнивание : Соединение по промежуткам
Продолжительность промежутка : 42 мс. (1,00 видеокадр)
Время предзагрузки промежутка : 504 мс.
Библиотека кодирования : LAME3.99r
Настройки программы : -m j -V 4 -q 2 -lowpass 17 -b 128
-
-Скриншоты:
-
1. Открыть торрент
2. Снять галки с тех файлов торрента, которые мы не хотим закачивать. Оставляем только на нужных нам файлах (файле).
3. Нажать О.К.
В клиенте utorrent
Инструкция
1) Открыть торрент

2) Снять галки с тех файлов торрента, которые мы не хотим закачивать:
* либо вручную, снимая с каждого файла галку( скрин №1)
* либо, нажав кнопку "Снять метки (Select None)", сняв сразу со всех файлов(скрин №2)
№1

№2

Оставляем только на нужных нам файлах (файле).

3)Нажать О.К
-Добавлена тринадцатая, заключительная, серия первого сезона
Download / Скачать

Хотите скачать бесплатно? Зарегистрируйтесь на сайте (ссылка на регистрацию). Pirat.ca - самый быстрый торрент трекер в рунете!

Как скачивать  ·   Что такое торрент  ·   Рейтинг и ограничения



Последний раз редактировалось: kugesan (2015-06-01 14:35), всего редактировалось 12 раз(а)

jofrei53

Корсар

Пост 14-Май-2015 22:43 (спустя 2 месяца 11 дней)

[Q] 

Спасибо! Сериал очень, даже, не плохой.... Автору респект!!! Лови бочку
[Профиль]  [ЛС] 

kugesan ®

56631

Пост 14-Май-2015 22:59 (спустя 16 минут)

[Q] 

Приятного просмотра!!!

_________________

В мире две бесконечности: вселенная и человеческая глупость - Альберт Эйнштен
«Можно вытащить человека из грязи, но нельзя вытащить грязь из человека»!
[Профиль]  [ЛС] 

kugesan ®

56631

Пост 20-Май-2015 14:39 (спустя 5 дней)

[Q] 

Добавлена двенадцатая серия первого сезона

_________________

В мире две бесконечности: вселенная и человеческая глупость - Альберт Эйнштен
«Можно вытащить человека из грязи, но нельзя вытащить грязь из человека»!
[Профиль]  [ЛС] 
Показать сообщения:    
Ответить на тему

Текущее время: Сегодня 00:21

Часовой пояс: GMT + 4



Вы не можете начинать темы
Вы не можете отвечать на сообщения
Вы не можете редактировать свои сообщения
Вы не можете удалять свои сообщения
Вы не можете голосовать в опросах
Вы не можете прикреплять файлы к сообщениям
Вы не можете скачивать файлы

▼ Вниз