ML
     
  Уважаемый Гость!
Вы можете поддержать проект и зарегистрироваться у наших партнеров - онлайн-стратегия MyLands. При регистрации в игре Вы получите код, который сможете активировать после регистрации на pirat.ca и получить 1000 дублонов.

Ваш код:
0ea1bf889af42fca5f67d0a391efb3400850ad7c
 
     

Раскопка / Dig / Сезон: 1 / Серии: 1-10 из 10 (С.Дж. Кларксон / S.J. Clarkson) [2015 г., Драма, приключения, WEB-DL, 720p] MVO (BaibaKo) + Original (Eng)

Ответить на тему
 
Автор
Сообщение

Пост 07-Мар-2015 22:20

[Q] 

LPPI

-Раскопка / Dig- Производство: США, Keshet Broadcasting, Tailwind Productions, Universal Cable Productions
Жанр: Драма, приключения
Год выпуска: 2015 г.-Озвучка:
Перевод: Профессиональный (многоголосый, закадровый)
Оригинальный аудиопоток: английский-Сезон: 1
Серии: 10 из 10 серий
Продолжительность: ~ 00:45:00 мин серия-Режиссер: С.Дж. Кларксон / S.J. Clarkson
В ролях: Джейсон Айзекс, Яэль Эйтан, Зен МакГрат, Ори Феффер, Гай Селник, Брайан Барела, Ричард Бил, Дерек Блэкни, Рич Чавез, Дэвид Костабайл-Описание: Питер, агент ФБР в Иерусалиме, выясняет обстоятельства убийства молодой женщины-археолога. В ходе расследования он узнаёт о многовековом заговоре, который способен радикально повлиять на ход человеческой истории.- -Качество видео: WEB-DL
Контейнер: MKV
Стандарт разрешения: 720p
Видео кодек: MPEG4 AVC
Аудио кодек: AC3
Видео: 1280x720 (16:9), 23.976 fps, ~3 884 Kbps, 0.176 bit/pix
Аудио: AC3, 384 kbps, 6 ch, 48 kHz - Rus
Аудио #2: AC3, 384 kbps, 6 ch, 48 kHz - Eng
Cубтитры: отсутствуют-
1. Пилот
2. До скорого
3. Познакомьтесь с Розенбергами
4. Молитва Давида
5. Отец Эммы Уилсон
6. Колодец душ
7. Никому не доверяй
8. Сёстры Дины
9. Иосафат
10.Протокол Армагеддона (Финал сезона)
General
Unique ID : 173803127166112304884280322162940609745 (0x82C143C39FC08A93BFA30BB4A40E84D1)
Complete name : C:\Users\Ivan\Desktop\Dig - Раскопки. BaibaKo. 720p\Dig.s01e02.HD720p.WEB-DL.Rus.Eng.BaibaKo.tv.mkv
Format : Matroska
Format version : Version 4 / Version 2
File size : 1.39 GiB
Duration : 42mn 1s
Overall bit rate : 4 746 Kbps
Encoded date : UTC 2015-03-13 22:35:41
Writing application : mkvmerge v7.4.0 ('Circles') 64bit built on Dec 12 2014 12:19:56
Writing library : libebml v1.3.0 + libmatroska v1.4.1
DURATION : 00:42:01.978000000
NUMBER_OF_FRAMES : 60467
NUMBER_OF_BYTES : 1253403669
_STATISTICS_WRITING_APP : mkvmerge v7.4.0 ('Circles') 64bit built on Dec 12 2014 12:19:56
_STATISTICS_WRITING_DATE_UT : 2015-03-13 22:35:41
_STATISTICS_TAGS : BPS DURATION NUMBER_OF_FRAMES NUMBER_OF_BYTES
Video
ID : 1
Format : AVC
Format/Info : Advanced Video Codec
Format profile : [email protected]
Format settings, CABAC : No
Format settings, ReFrames : 2 frames
Codec ID : V_MPEG4/ISO/AVC
Duration : 42mn 1s
Bit rate : 3 884 Kbps
Width : 1 280 pixels
Height : 720 pixels
Display aspect ratio : 16:9
Frame rate mode : Constant
Frame rate : 23.976 fps
Color space : YUV
Chroma subsampling : 4:2:0
Bit depth : 8 bits
Scan type : Progressive
Bits/(Pixel*Frame) : 0.176
Stream size : 1.14 GiB (82%)
Language : English
Default : Yes
Forced : No
Color primaries : BT.709
Transfer characteristics : BT.709
Matrix coefficients : BT.709
Color range : Limited
Audio #1
ID : 2
Format : AC-3
Format/Info : Audio Coding 3
Mode extension : CM (complete main)
Format settings, Endianness : Big
Codec ID : A_AC3
Duration : 42mn 1s
Bit rate mode : Constant
Bit rate : 384 Kbps
Channel(s) : 6 channels
Channel positions : Front: L C R, Side: L R, LFE
Sampling rate : 48.0 KHz
Bit depth : 16 bits
Compression mode : Lossy
Stream size : 115 MiB (8%)
Language : Russian
Default : Yes
Forced : No
Audio #2
ID : 3
Format : AC-3
Format/Info : Audio Coding 3
Mode extension : CM (complete main)
Format settings, Endianness : Big
Codec ID : A_AC3
Duration : 42mn 1s
Bit rate mode : Constant
Bit rate : 384 Kbps
Channel(s) : 6 channels
Channel positions : Front: L C R, Side: L R, LFE
Sampling rate : 48.0 KHz
Bit depth : 16 bits
Compression mode : Lossy
Stream size : 115 MiB (8%)
Language : English
Default : No
Forced : No
-Скриншоты:
- -Добавлена 10 серия первого сезона (Финал)-
Download / Скачать

Хотите скачать бесплатно? Зарегистрируйтесь на сайте (ссылка на регистрацию). Pirat.ca - самый быстрый торрент трекер в рунете!

Как скачивать  ·   Что такое торрент  ·   Рейтинг и ограничения



Последний раз редактировалось: LPPI (2015-05-10 13:22), всего редактировалось 10 раз(а)

LPPI ®

137536

Пост 07-Мар-2015 22:22 (спустя 1 минута)

[Q] 

Добавлена 1 серия первого сезона
[Профиль]  [ЛС] 

LPPI ®

137536

Пост 14-Мар-2015 12:38 (спустя 6 дней)

[Q] 

Добавлена 2 серия первого сезонаДобавлено спустя 1 минута:Раздача обновлена на более лучшее качество WEB-DL, перекачайте первую серию!
[Профиль]  [ЛС] 

Pit

Пост 14-Мар-2015 13:53 (спустя 1 час 15 минут)

[Q] 

КАЧАЮ. Спасибо!!! РАЗДАЮ.
[Профиль]  [ЛС] 

LPPI ®

137536

Пост 21-Мар-2015 21:06 (спустя 7 дней)

[Q] 

Добавлена 3 серия первого сезона
[Профиль]  [ЛС] 

Region-89

Гроза морей

550

Пост 21-Мар-2015 21:12 (спустя 5 минут)

[Q] 

как сериал? стоит начинать смотреть?

_________________
[Профиль]  [ЛС] 

oldmaster

Лоцман

Пост 22-Мар-2015 01:45 (спустя 4 часа)

[Q] 

В первой серии события развиваются вяло. Но есть сюжет, есть интрига и после двух серий захотелось посмотреть третью.
[Профиль]  [ЛС] 

LPPI ®

137536

Пост 27-Мар-2015 21:35 (спустя 5 дней)

[Q] 

Добавлена 4 серия первого сезона
[Профиль]  [ЛС] 

LPPI ®

137536

Пост 04-Апр-2015 17:36 (спустя 7 дней)

[Q] 

Добавлена 5 серия первого сезона
[Профиль]  [ЛС] 

XMax

Флибустьер

Пост 04-Апр-2015 19:29 (спустя 1 час 52 минуты)

[Q] 

Спасибо, будем посмотреть.
Автору респект!!! Лови бочку
[Профиль]  [ЛС] 

LPPI ®

137536

Пост 11-Апр-2015 17:23 (спустя 6 дней)

[Q] 

Добавлена 6 серия первого сезона
[Профиль]  [ЛС] 

LPPI ®

137536

Пост 18-Апр-2015 20:38 (спустя 7 дней)

[Q] 

Добавлена 7 серия первого сезона
[Профиль]  [ЛС] 

LPPI ®

137536

Пост 25-Апр-2015 19:51 (спустя 6 дней)

[Q] 

Добавлена 8 серия первого сезона
[Профиль]  [ЛС] 

LPPI ®

137536

Пост 03-Май-2015 09:09 (спустя 7 дней)

[Q] 

Добавлена 9 серия первого сезона
[Профиль]  [ЛС] 

LPPI ®

137536

Пост 10-Май-2015 13:22 (спустя 7 дней)

[Q] 

Добавлена 10 серия первого сезона (Финал)
[Профиль]  [ЛС] 
Показать сообщения:    
Ответить на тему

Текущее время: Сегодня 00:37

Часовой пояс: GMT + 4



Вы не можете начинать темы
Вы не можете отвечать на сообщения
Вы не можете редактировать свои сообщения
Вы не можете удалять свои сообщения
Вы не можете голосовать в опросах
Вы не можете прикреплять файлы к сообщениям
Вы не можете скачивать файлы

▼ Вниз