ML
     
  Уважаемый Гость!
Вы можете поддержать проект и зарегистрироваться у наших партнеров - онлайн-стратегия MyLands. При регистрации в игре Вы получите код, который сможете активировать после регистрации на pirat.ca и получить 1000 дублонов.

Ваш код:
2932e5898d0a27592397f70b82a5834d1e70ea19
 
     

Карточный домик / House of Cards / Сезон: 3 / Серии: 1-13 из 13 (Джеймс Фоули / James Foley) [2015 г., драма, WEBRip, 720p] MVO (Первый канал) + Original (Eng) + Sub (Rus, Eng)

Ответить на тему
 
Автор
Сообщение

Пост 08-Мар-2015 10:15

[Q] 

LPPI

-Карточный домик / House of Cards- Производство: США, Media Rights Capital, Panic Pictures (II), Trigger Street Productions
Жанр: драма
Год выпуска: 2015 г.-Озвучка: Первый канал
Перевод: Профессиональный (многоголосый, закадровый)
Оригинальный аудиопоток: английский-Сезон: 3
Серии: 13 из 13 серий
Продолжительность: ~ 00:58:00 мин серия-Режиссер: Джеймс Фоули / James Foley
В ролях: Кевин Спейси, Робин Райт, Ламонт Истер, Молли Паркер, Кёртисс Кук, Дэйв Ферье, Джереми Холм, Джулиан Гэмбл, Кейт Лин Шейл, Дж.Е. Мацер, Роберт Полетик, Лайам Фергюсон-Описание: Безжалостный конгрессмен, Фрэнсис Андервуд, и его амбициозная жена Клэр, не остановятся ни перед чем, чтобы завоевать все. Эта жестокая политическая драма пропитанная жадностью, сексом, любовью и коррупцией.- -Качество видео: WEBRip
Контейнер: MKV
Стандарт разрешения: 720p
Видео кодек: MPEG4 AVC
Аудио кодек: AC3
Видео: 1280x640 (2.000), 23.976 fps, ~1 410 Kbps
Аудио: AC3, 256 kbps, 2 ch, 48 kHz - Rus
Аудио #2: AC3, 640 kbps, 6 ch, 48 kHz - Eng
Cубтитры: Русские, английские-
General
Unique ID : 176838750877972079691108960421900731931 (0x8509E791883134969A44AAD34444461B)
Complete name : C:\Users\Ivan\Desktop\Карточный домик (сезон 3) House of Cards (2015) WEBRip 720p - Первый\House.of.Cards.s03e01.720p.1kanal.[qqss44].mkv
Format : Matroska
Format version : Version 2
File size : 988 MiB
Duration : 58mn 41s
Overall bit rate : 2 353 Kbps
Encoded date : UTC 2015-03-03 23:50:44
Writing application : mkvmerge v7.6.0 ('Garden of Dreams') 64bit built on Feb 8 2015 13:04:34
Writing library : libebml v1.3.1 + libmatroska v1.4.2
DURATION : 00:58:37.472000000
NUMBER_OF_FRAMES : 109921
NUMBER_OF_BYTES : 112559104
_STATISTICS_WRITING_APP : mkvmerge v7.6.0 ('Garden of Dreams') 64bit built on Feb 8 2015 13:04:34
_STATISTICS_WRITING_DATE_UT : 2015-03-03 23:50:44
_STATISTICS_TAGS : BPS DURATION NUMBER_OF_FRAMES NUMBER_OF_BYTES
Video
ID : 1
Format : AVC
Format/Info : Advanced Video Codec
Format profile : [email protected]
Format settings, CABAC : Yes
Format settings, ReFrames : 5 frames
Codec ID : V_MPEG4/ISO/AVC
Duration : 58mn 41s
Bit rate : 1 410 Kbps
Width : 1 280 pixels
Height : 640 pixels
Display aspect ratio : 2.000
Frame rate mode : Constant
Frame rate : 23.976 fps
Color space : YUV
Chroma subsampling : 4:2:0
Bit depth : 8 bits
Scan type : Progressive
Bits/(Pixel*Frame) : 0.072
Stream size : 592 MiB (60%)
Writing library : x264 core 144 r2525 40bb568
Encoding settings : cabac=1 / ref=5 / deblock=1:0:0 / analyse=0x3:0x113 / me=umh / subme=8 / psy=1 / psy_rd=1.00:0.00 / mixed_ref=1 / me_range=16 / chroma_me=1 / trellis=1 / 8x8dct=1 / cqm=0 / deadzone=21,11 / fast_pskip=1 / chroma_qp_offset=-2 / threads=12 / lookahead_threads=2 / sliced_threads=0 / nr=0 / decimate=1 / interlaced=0 / bluray_compat=0 / constrained_intra=0 / bframes=3 / b_pyramid=2 / b_adapt=2 / b_bias=0 / direct=3 / weightb=1 / open_gop=0 / weightp=2 / keyint=250 / keyint_min=23 / scenecut=40 / intra_refresh=0 / rc_lookahead=50 / rc=crf / mbtree=1 / crf=18.0 / qcomp=0.60 / qpmin=0 / qpmax=69 / qpstep=4 / ip_ratio=1.40 / aq=1:1.00
Language : English
Default : Yes
Forced : No
Matrix coefficients : BT.709
Color range : Limited
DURATION : 00:58:41.063000000
NUMBER_OF_FRAMES : 84421
NUMBER_OF_BYTES : 640520769
_STATISTICS_WRITING_APP : mkvmerge v7.6.0 ('Garden of Dreams') 64bit built on Feb 8 2015 13:04:34
_STATISTICS_WRITING_DATE_UT : 2015-03-03 23:50:44
_STATISTICS_TAGS : BPS DURATION NUMBER_OF_FRAMES NUMBER_OF_BYTES
Audio #1
ID : 2
Format : AC-3
Format/Info : Audio Coding 3
Mode extension : CM (complete main)
Format settings, Endianness : Big
Codec ID : A_AC3
Duration : 58mn 41s
Bit rate mode : Constant
Bit rate : 256 Kbps
Channel(s) : 2 channels
Channel positions : Front: L R
Sampling rate : 48.0 KHz
Bit depth : 16 bits
Compression mode : Lossy
Stream size : 107 MiB (11%)
Language : Russian
Default : Yes
Forced : No
Audio #2
ID : 3
Format : AC-3
Format/Info : Audio Coding 3
Mode extension : CM (complete main)
Format settings, Endianness : Big
Codec ID : A_AC3
Duration : 58mn 41s
Bit rate mode : Constant
Bit rate : 640 Kbps
Channel(s) : 6 channels
Channel positions : Front: L C R, Side: L R, LFE
Sampling rate : 48.0 KHz
Bit depth : 16 bits
Compression mode : Lossy
Stream size : 269 MiB (27%)
Language : English
Default : No
Forced : No
Text #1
ID : 4
Format : UTF-8
Codec ID : S_TEXT/UTF8
Codec ID/Info : UTF-8 Plain Text
Language : Russian
Default : No
Forced : No
Text #2
ID : 5
Format : UTF-8
Codec ID : S_TEXT/UTF8
Codec ID/Info : UTF-8 Plain Text
Language : English
Default : No
Forced : No
-Скриншоты:
-
Download / Скачать

Хотите скачать бесплатно? Зарегистрируйтесь на сайте (ссылка на регистрацию). Pirat.ca - самый быстрый торрент трекер в рунете!

Как скачивать  ·   Что такое торрент  ·   Рейтинг и ограничения

Пост 08-Мар-2015 14:18 (спустя 4 часа)

Топик был перенесен из форума Зарубежные сериалы (Трюм) в форум Сериалы в эфире
kugesan
 

BraionServ1

Гроза морей

Пост 08-Мар-2015 16:33 (спустя 6 часов)

[Q] 

Опративно, но Интерестно вроде объявляли что выйдет посерино, а тут разом или я чего-то не понимаю Автору респект!!!
[Профиль]  [ЛС] 

[email protected].ru

Корсар

Пост 08-Мар-2015 21:33 (спустя 5 часов)

[Q] 

даже права писек засветились) жгуче)
спасибо за все серии разом.
[Профиль]  [ЛС] 

blackmag

Шкипер

Пост 08-Мар-2015 23:57 (спустя 2 часа 23 минуты)

[Q] 

посмотрим, первые 2 сезоны были охеренные!
[Профиль]  [ЛС] 

Dazdranargon

Флибустьер

Пост 17-Мар-2015 20:21 (спустя 8 дней)

[Q] 

Великолепный Кевин Спейси! Спасибо!!!

_________________

[Профиль]  [ЛС] 

DiaLoK

Лоцман

Пост 26-Мар-2015 19:22 (спустя 8 дней)

[Q] 

супер!!спасибо за релиз, LPPI !!
наконец фрилич :) спасибо за фрилич, BilleBons!
качаю с нетерпением
[Профиль]  [ЛС] 

fiona-d

Шкипер

32

Пост 05-Апр-2015 13:31 (спустя 9 дней)

[Q] 

спасибо!!! Лови бочку
[Профиль]  [ЛС] 

SenatoR

Морской Волк

Пост 12-Апр-2015 12:34 (спустя 6 дней)

[Q] 

отличный сериал!
[Профиль]  [ЛС] 

denmenen

Шкипер

Пост 02-Май-2015 23:07 (спустя 20 дней)

[Q] 

шикарный сериал! спасибо!!!

_________________
Только дурак будет доказывать дураку, что тот дурак...
[Профиль]  [ЛС] 

rusty_springs

Шкипер

Пост 23-Авг-2015 16:06 (спустя 3 месяца 20 дней)

[Q] 

4 сезон когда ждать?
[Профиль]  [ЛС] 

Пост 20-Дек-2015 20:55 (спустя 3 месяца 28 дней)

Топик был перенесен из форума Сериалы в эфире в форум Зарубежные сериалы
erchine
 
Показать сообщения:    
Ответить на тему

Текущее время: Сегодня 08:05

Часовой пояс: GMT + 4



Вы не можете начинать темы
Вы не можете отвечать на сообщения
Вы не можете редактировать свои сообщения
Вы не можете удалять свои сообщения
Вы не можете голосовать в опросах
Вы не можете прикреплять файлы к сообщениям
Вы не можете скачивать файлы

▼ Вниз