ML
     
  Уважаемый Гость!
Вы можете поддержать проект и зарегистрироваться у наших партнеров - онлайн-стратегия MyLands. При регистрации в игре Вы получите код, который сможете активировать после регистрации на pirat.ca и получить 1000 дублонов.

Ваш код:
11f49771fdf057c9d51610e4a0925c3b46ddb655
 
     

Викинги / Vikings / Сезон: 3 / Серии: 1-10 из 10 (Кен Джиротти / Ken Girotti, ...) [2015 г., боевик, драма, военный, история, WEB-DL, 720p] MVO (BaibaKo) + Original (Eng)

Ответить на тему
 
Автор
Сообщение

Пост 08-Мар-2015 12:15

[Q] 

LPPI

-Викинги / Vikings- Производство: Ирландия, Канада, World 2000 Entertainment, Take 5 Productions, Shaw Media
Жанр: боевик, драма, военный, история
Год выпуска: 2015 г.-Озвучка:
Перевод: Профессиональный (многоголосый, закадровый)
Оригинальный аудиопоток: английский-Сезон: 3
Серии: 10 из 10 серий
Продолжительность: ~ 00:45:00 мин серия-Режиссер: Кен Джиротти / Ken Girotti, Киаран Доннелли / Ciaran Donnelly, Йохан Ренк / Johan Renck
В ролях: Трэвис Фиммел, Клайв Стэнден, Кэтрин Уинник, Гэбриел Бирн, Джессалин Гилсиг, Густаф Скарсгард, Джефферсон Холл, Джордж Благден, Тадж Мерфи, Диармэйд Мурта-Описание: Сериал рассказывает об отряде викингов Рагнара. Он восстал, чтобы стать королём племён викингов. Норвежская легенда гласит, что он был прямым потомком Одина, бога войны и воинов.- -Качество видео: WEB-DL
Контейнер: MKV
Стандарт разрешения: 720p
Видео кодек: MPEG4 AVC
Аудио кодек: AC3
Видео: 1280x718 (16:9), 23.976 fps, ~3 933 Kbps, 0.179 bit/pix
Аудио: AC3, 384 kbps, 6 ch, 48 kHz - Rus
Аудио #2: AC3, 384 kbps, 6 ch, 48 kHz - Eng
Cубтитры: отсутствуют-
1. Наёмник
2. Странник
3. Судьба воина
4. Со шрамом
5. Захватчик
6. Рождённый заново
7. Париж
8. К воротам!
9. Переломный момент
10. Мёртвый
General
Unique ID : 204620283782509084078273582837704388077 (0x99F06EE4A8F6380595541340CBFB6DED)
Complete name : C:\Users\Ivan\Desktop\Vikings.S3.2015.WEB-DL.720p\Vikings.s03e01.HD720p.WEB-DL.Rus.Eng.BaibaKo.tv.mkv
Format : Matroska
Format version : Version 4 / Version 2
File size : 1.51 GiB
Duration : 45mn 10s
Overall bit rate : 4 797 Kbps
Encoded date : UTC 2015-02-21 01:01:16
Writing application : mkvmerge v7.4.0 ('Circles') 64bit built on Dec 12 2014 12:19:56
Writing library : libebml v1.3.0 + libmatroska v1.4.1
DURATION : 00:45:10.041000000
NUMBER_OF_FRAMES : 64976
NUMBER_OF_BYTES : 1364045009
_STATISTICS_WRITING_APP : mkvmerge v7.4.0 ('Circles') 64bit built on Dec 12 2014 12:19:56
_STATISTICS_WRITING_DATE_UT : 2015-02-21 01:01:16
_STATISTICS_TAGS : BPS DURATION NUMBER_OF_FRAMES NUMBER_OF_BYTES
Video
ID : 1
Format : AVC
Format/Info : Advanced Video Codec
Format profile : [email protected]
Format settings, CABAC : No
Format settings, ReFrames : 2 frames
Codec ID : V_MPEG4/ISO/AVC
Duration : 45mn 10s
Bit rate : 3 933 Kbps
Width : 1 280 pixels
Height : 718 pixels
Display aspect ratio : 16:9
Frame rate mode : Constant
Frame rate : 23.976 fps
Color space : YUV
Chroma subsampling : 4:2:0
Bit depth : 8 bits
Scan type : Progressive
Bits/(Pixel*Frame) : 0.179
Stream size : 1.24 GiB (82%)
Language : English
Default : Yes
Forced : No
Color primaries : BT.709
Transfer characteristics : BT.709
Matrix coefficients : BT.709
Color range : Limited
Audio #1
ID : 2
Format : AC-3
Format/Info : Audio Coding 3
Mode extension : CM (complete main)
Format settings, Endianness : Big
Codec ID : A_AC3
Duration : 45mn 10s
Bit rate mode : Constant
Bit rate : 384 Kbps
Channel(s) : 6 channels
Channel positions : Front: L C R, Side: L R, LFE
Sampling rate : 48.0 KHz
Bit depth : 16 bits
Compression mode : Lossy
Stream size : 124 MiB (8%)
Language : Russian
Default : Yes
Forced : No
Audio #2
ID : 3
Format : AC-3
Format/Info : Audio Coding 3
Mode extension : CM (complete main)
Format settings, Endianness : Big
Codec ID : A_AC3
Duration : 45mn 10s
Bit rate mode : Constant
Bit rate : 384 Kbps
Channel(s) : 6 channels
Channel positions : Front: L C R, Side: L R, LFE
Sampling rate : 48.0 KHz
Bit depth : 16 bits
Compression mode : Lossy
Stream size : 124 MiB (8%)
Language : English
Default : No
Forced : No
-Скриншоты:
-Добавлена 10 серия третьего сезона (ФИНАЛ)-
Download / Скачать

Хотите скачать бесплатно? Зарегистрируйтесь на сайте (ссылка на регистрацию). Pirat.ca - самый быстрый торрент трекер в рунете!

Как скачивать  ·   Что такое торрент  ·   Рейтинг и ограничения



Последний раз редактировалось: LPPI (2015-04-26 10:27), всего редактировалось 8 раз(а)

Пост 08-Мар-2015 14:16 (спустя 2 часа)

Топик был перенесен из форума Зарубежные сериалы (Трюм) в форум Сериалы в эфире
kugesan
 

LPPI ®

137546

Пост 14-Мар-2015 09:54 (спустя 5 дней)

[Q] 

Добавлена 4 серия третьего сезона
[Профиль]  [ЛС] 

LPPI ®

137546

Пост 21-Мар-2015 21:39 (спустя 7 дней)

[Q] 

Добавлена 5 серия третьего сезона
[Профиль]  [ЛС] 

pdb08

Легенда

Пост 21-Мар-2015 21:43 (спустя 4 минуты)

[Q] 

Смотрел Весь сериал! Смотрительно ))) Автору респект!!!

_________________
[Профиль]  [ЛС] 

LPPI ®

137546

Пост 28-Мар-2015 01:20 (спустя 6 дней)

[Q] 

Добавлена 6 серия третьего сезона
[Профиль]  [ЛС] 

zvezda_2s

Корсар

Пост 28-Мар-2015 11:59 (спустя 10 часов)

[Q] 

А когда остальные?
[Профиль]  [ЛС] 

LPPI ®

137546

Пост 28-Мар-2015 12:09 (спустя 9 минут)

[Q] 

660974А когда остальные?
7 серия будет после 2 апреля 2015
[Профиль]  [ЛС] 

LPPI ®

137546

Пост 04-Апр-2015 17:17 (спустя 7 дней)

[Q] 

Добавлена 7 серия третьего сезона
[Профиль]  [ЛС] 

pdb08

Легенда

Пост 04-Апр-2015 18:45 (спустя 1 час 28 минут)

[Q] 

Хороший сериал! Раздающему респект!

_________________
[Профиль]  [ЛС] 

LPPI ®

137546

Пост 11-Апр-2015 20:01 (спустя 7 дней)

[Q] 

Добавлена 8 серия третьего сезона
[Профиль]  [ЛС] 

LPPI ®

137546

Пост 19-Апр-2015 10:22 (спустя 7 дней)

[Q] 

Добавлена 9 серия третьего сезона
[Профиль]  [ЛС] 

Roma_TT

Канонир

Пост 19-Апр-2015 18:50 (спустя 8 часов)

[Q] 

Спасибо!!! ..................... Супер!
[Профиль]  [ЛС] 

frescobaldi

Штурман

Пост 20-Апр-2015 19:57 (спустя 1 день 1 час)

[Q] 

Забрал. Еще одна серия останется и уже конец. Как быстро Спасибо!!!

_________________

[Профиль]  [ЛС] 

LPPI ®

137546

Пост 26-Апр-2015 10:06 (спустя 5 дней)

[Q] 

Добавлена 10 серия третьего сезона (ФИНАЛ)
[Профиль]  [ЛС] 

YURI_VK

Штурман

Пост 26-Апр-2015 20:48 (спустя 10 часов)

[Q] 

Когда в AVI будет от Байбако десятая серия?
[Профиль]  [ЛС] 

frescobaldi

Штурман

Пост 27-Апр-2015 21:19 (спустя 1 день)

[Q] 

Ждём 4 сезон.

_________________

[Профиль]  [ЛС] 

Фундук

Штурман

Пост 26-Май-2015 22:47 (спустя 29 дней)

[Q] 

когда 4 обещают ?
[Профиль]  [ЛС] 
Показать сообщения:    
Ответить на тему

Текущее время: Сегодня 03:12

Часовой пояс: GMT + 4



Вы не можете начинать темы
Вы не можете отвечать на сообщения
Вы не можете редактировать свои сообщения
Вы не можете удалять свои сообщения
Вы не можете голосовать в опросах
Вы не можете прикреплять файлы к сообщениям
Вы не можете скачивать файлы

▼ Вниз