ML
     
  Уважаемый Гость!
Вы можете поддержать проект и зарегистрироваться у наших партнеров - онлайн-стратегия MyLands. При регистрации в игре Вы получите код, который сможете активировать после регистрации на pirat.ca и получить 1000 дублонов.

Ваш код:
cc3be08b7507661c03e0a2f582d0da3a659ea55a
 
     

Теория большого взрыва / The Big Bang Theory / Сезон: 1-6 / серии 135 из 135 (Марк Сендроуски / Mark Cendrowski, ...) [2007-2013 г., комедия, ситком, ... HDTVRip, 720p] VO (Кураж-Бамбей) + Original (Eng)

Ответить на тему
 
Автор
Сообщение

Пост 21-Мар-2015 15:59

[Q] 

spidercola86

Теория большого взрыва / The Big Bang Theory«Smart Is The New Sexy»- Год выпуска: 2007-2013
Жанр: Комедия, ситком, ...
Перевод: Одноголосый закдровый «Кураж-Бамбей»
Сезоны: с 1-го по 6-ый
Количество серий: 135 из 135
Продолжительность: 135 x ~ 00:21:00
Режиссер: Марк Сендроуски / Mark Cendrowski, Питер Чакос / Peter Chakos, Энтони Джозеф Рич / Anthony Joseph Rich, ...
Актеры: Джонни Галецки, Джим Парсонс, Кейли Куоко, Саймон Хелберг, Кунал Найяр, Мелисса Ройч, Кэрол Энн Сьюзи, Майем Биэлик, Кевин Суссман, Арти Манн
Описание:
Два блестящих физика, Леонард и Шелдон, «великие умы», которые понимают, как «работает вселенная». Но их гениальность ничуть не помогает им общаться с людьми, особенно с женщинами. Всё начинает меняться, когда напротив них поселяется красавица Пенни. Когда Леонард и Шелдон встречают Пенни, Леонард сразу же начинает интересоваться ею. Он видит в общении с Пенни огромную перспективу…, вплоть до любви, однако Шелдон понимает, что мечтам его друга не суждено сбыться. Стоит также отметить пару странных друзей этих физиков: Воловец, который любит употреблять фразы на разных языках, включая русский, и Раджеш Кутрапали, теряющий дар речи при виде женщин.
Кinopoisk Imdb
Качество: HDTVRip, WEB-DLRip
Формат: mkv
Видео кодек: H.264
Аудио кодек: AC-3
Видео: 1280x720, 23,976 fps, ~3292 Kbps, 0.133 bit/pixel
Аудио #1: RUS 48 kHz, Audio Coding 3, 2 ch, 128 kbps (сезон 1), 384 kbps (сезоны 2, 6), 192 kbps (сезоны 3-5) avg
Аудио #2: ENG 48 kHz, Audio Coding 3, 2 ch, 384 kbps avg
Субтитры: отсутствуют (сезоны 1, 3), Русские (сезоны 2, 4, 5), Английские (сезоны 4-6)-
Качeство: HDTVRip
Фoрмат: mkv
Видео кодек: H.264
Аудио кодек: AC-3
Видео: 1280x720, 23,976 fps, 3292 Kbps, 0.133 bit/pixel
Аудио: RUS 48 kHz, Audio Coding 3, 2 ch, 128.00 kbps avg
Аудио: ENG 48 kHz, Audio Coding 3, 2 ch, 384.00 kbps avg
Субтитpы: Нет
1x01 Пилот / Pilot
1x02 Гипотеза большой перебранки / The Big Bran Hypothesis
1x03 Нечеткие обувные следствия / The Fuzzy Boots Corollary
1x04 Световой рыбный эффект / The Luminous Fish Effect
1x05 Постулат гамбургера / The Hamburger Postulate
1x06 Парадигма Средиземья / The Middle Earth Paradigm
1x07 Парадокс пельменей / The Dumpling Paradox
1x08 Эксперимент кузнечика / The Grasshopper Experiment
1x09 Поляризация Купера-Хофстедтера / The Cooper-Hofstadter Polarization
1x10 Распад Лубенфельда / The Loobenfeld Decay
1x11 Блинная аномалия / The Pancake Batter Anomaly
1x12 Двойственность Иерусалима / The Jerusalem Duality
1x13 Гипотеза превосходства / The Bat Jar Conjecture
1x14 Аннигиляция нердваны / The Nerdvana Annihilation
1x15 Свиная отбивная неопределенности / The Pork Chop Indeterminacy
1x16 Реакция арахиса / The Peanut Reaction
1x17 Мандариновый фактор / The Tangerine Factor
Качeство: HDTVRip
Фoрмат: mkv
Видео кодек: H.264
Аудио кодек: AC-3
Видео: 1280x720, 23,976 fps, 3272 Kbps, 0.145 bit/pixel
Аудио: RUS 48 kHz, Audio Coding 3, 6 ch, 384.00 kbps avg
Аудио: ENG 48 kHz, Audio Coding 3, 6 ch, 384.00 kbps avg
Субтитpы: Русские
2x01 Парадигма протухшей рыбы / The Bad Fish Paradigm
2x02 Топология гульфика / The Codpiece Topology
2x03 Варварская сублимация / The Barbarian Sublimation
2x04 Эквивалентность грифона / The Griffin Equivalency
2x05 Евклидова альтернатива / The Euclid Alternative
2x06 Теорема Купера-Новицки / The Cooper-Nowitzki Theorem
2x07 Поляризация панти-пинаты / The Panty Piñata Polarization
2x08 Расширение Ящерица-Спок / The Lizard-Spock Expansion
2x09 Белая спаржа триангуляции / The White Asparagus Triangulation
2x10 Головолка Вартабедиан / The Vartabedian Conundrum
2x11 Гипотеза правильных подарков / The Bath Item Gift Hypothesis
2x12 Нестабильность роботов-убийц / The Killer Robot Instability
2x13 Алгоритм дружбы / The Friendship Algorithm
2x14 Финансовая проницательность / The Financial Permeability
2x15 Материнская емкость / The Maternal Capacitance
2x16 Подушечная насыщенность / The Cushion Saturation
2x17 Развязка Терминатора / The Terminator Decoupling
2x18 Нанокластеры с песнями на работе / The Work Song Nanocluster
2x19 Противопоставление мертвой шлюхи / The Dead Hooker Juxtaposition
2x20 Изотоп Хофстедтера / The Hofstadter Isotope
2x21 Перенормировка Вегаса / The Vegas Renormalization
2x22 Турбулентность секретных материалов / The Classified Materials Turbulence
2x23 Монополярная экспедиция / The Monopolar Expedition
Качeство: HDTVRip
Фoрмат: mkv
Видео кодек: H.264
Аудио кодек: AC-3
Видео: 1280x720, 23,976 fps, 3292 Kbps, 0.163 bit/pixel
Аудио: RUS 48 kHz, Audio Coding 3, 2 ch, 192.00 kbps avg
Аудио: ENG 48 kHz, Audio Coding 3, 6 ch, 384.00 kbps avg
Субтитpы: нет
3x01 Флуктуации электрического консервного ножа / The Electric Can Opener Fluctuation
3x02 Гипотеза Джимини / The Jiminy Conjecture
3x03 Отклонение готов / The Gothowitz Deviation
3x04 Пиратское решение / The Pirate Solution
3x05 Пресмыкающееся следствие обернутой конфеты / The Creepy Candy Coating Corollary
3x06 Кукурузное завихрение / The Cornhusker Vortex
3x07 Гитаристово усиление / The Guitarist Amplification
3x08 Дефицит самоклеющихся утят / The Adhesive Duck Deficiency
3x09 Месть разработчика / The Vengeance Formulation
3x10 Эксперимент с гориллой / The Gorilla Experiment
3x11 Материнское сравнение / The Maternal Congruence
3x12 Психическое завихрение / The Psychic Vortex
3x13 Реакция Бозмана / The Bozeman Reaction
3x14 Приближение Эйнштейна / The Einstein Approximation
3x15 Большое адронное столкновение / The Large Hadron Collision
3x16 Приобретение чего-то большего / The Excelsior Acquisition
3x17 Фрагментация драгоценности / The Precious Fragmentation
3x18 Брючная альтернатива / The Pants Alternative
3x19 Повторение Уитона / The Wheaton Recurrence
3x20 Спагеттивый катализатор / The Spaghetti Catalyst
3x21 Стимуляция Плимптона / The Plimpton Stimulation
3x22 Переход к лестнице / The Staircase Implementation
3x23 Лунное возбуждение / The Lunar Excitation
Качeство: HDTVRip, WEB-DLRip
Фoрмат: mkv
Видео кодек: H.264
Аудио кодек: AC-3
Видео: 1280x720, 23,976 fps, 3000 Kbps, 0.147 bit/pixel
Аудио: RUS 48 kHz, Audio Coding 3, 2 ch, 192.00 kbps avg
Аудио: ENG 48 kHz, Audio Coding 3, 6 ch, 384.00 kbps avg
Субтитpы: Русские, Английские
4x01 The Robotic Manipulation
4x02 The Cruciferous Vegetable Amplification
4x03 The Zazzy Substitution
4x04 The Hot Troll Deviation
4x05 The Desperation Emanation
4x06 The Irish Pub Formulation
4x07 The Apology Insufficiency
4x08 The 21-second Excitation
4x09 The Boyfriend Complexity
4x10 The Alien Parasite Hypothesis
4x11 The Justice League Recombination
4x12 The Bus Pants Utilization
4x13 The Love Car Displacement
4x14 The Thespian Catalyst
4x15 The Benefactor Factor
4x16 The Cohabitation Formulation
4x17 The Toast Derivation
4x18 The Prestidigitation Approximation
4x19 The Zarnecki Incursion
4x20 The Herb Garden Germination
4x21 The Agreement Dissection
4x22 The Wildebeest Implementation
4x23 The Engagement Reaction
4x24 The Roommate Transmogrification
Качeство: WEB-DLRip
Фoрмат: mkv
Видео кодек: H.264
Аудио кодек: AC-3
Видео: 1280x720, 23,976 fps, 4000 Kbps, 0.179 bit/pixel
Аудио: RUS 48 kHz, Audio Coding 3, 2 ch, 192.00 kbps avg
Аудио: ENG 48 kHz, Audio Coding 3, 6 ch, 384.00 kbps avg
Субтитpы: Русские, Английские
5x01 The Skank Reflex Analysis
5x02 The Infestation Hypothesis
5x03 The Pulled Groin Extrapolation
5x04 The Wiggly Finger Catalyst
5x05 The Russian Rocket Reaction
5x06 The Rhinitis Revelation
5x07 The Good Guy Fluctuation
5x08 The Isolation Permutation
5x09 The Ornithophobia Diffusion
5x10 The Flaming Spittoon Acquisition
5x11 The Speckerman Recurrence
5x12 The Shiny Trinket Maneuver
5x13 The Recombination Hypothesis
5x14 The Beta Test Initiation
5x15 The Friendship Contraction
5x16 The Vacation Solution
5x17 The Rothman Disintegration
5x18 The Werewolf Transformation
5x19 The Weekend Vortex
5x20 The Transporter Malfunction
5x21 The Hawking Excitation
5x22 The Stag Convergence
5x23 The Launch Acceleration
5x24 The Countdown Reflection
Качeство: WEB-DLRip
Фoрмат: mkv
Видео кодек: H.264
Аудио кодек: AC-3
Видео: 1280x720, 23,976 fps, 3300 Kbps, 0.15 bit/pixel
Аудио: RUS 48 kHz, Audio Coding 3, 6 ch, 384.00 kbps avg
Аудио: ENG 48 kHz, Audio Coding 3, 6 ch, 384.00 kbps avg
Субтитpы: Английские
6x01 The Date Night Variable
6x02 The Decoupling Fluctuation
6x03 The Higgs Boson Observation
6x04 The Re-Entry Minimization
6x05 The Holographic Excitation
6x06 The Extract Obliteration
6x07 The Habitation Configuration
6x08 The 43 Peculiarity
6x09 The Parking Spot Escalation
6x10 The Fish Guts Displacement
6x11 The Santa Simulation
6x12 The Egg Salad Equivalency
6x13 The Bakersfield Expedition
6x14 The Cooper/Kripke Inversion
6x15 The Spoiler Alert Segmentation
6x16 The Tangible Affection Proof
6x17 The Monster Isolation
6x18 The Contractual Obligation Implementation
6x19 The Closet Reconfiguration
6x20 The Tenure Turbulence
6x21 The Closure Alternative
6x22 The Proton Resurgence
6x23 The Love Spell Potential
6x24 The Bon Voyage Reaction
Код:
Complete name                            : D:\Теория большого взрыва [720p]\Сезон № 1\the.big.bang.theory.s01e01.720p.hdtv.mkv
Format                                   : Matroska
Format version                           : Version 1
File size                                : 571 MiB
Duration                                 : 22mn 38s
Overall bit rate                         : 3 527 Kbps
Encoded date                             : UTC 2008-07-20 11:34:47
Writing application                      : mkvmerge v2.2.0 ('Turn It On Again') built on Mar  4 2008 12:58:26
Writing library                          : libebml v0.7.7 + libmatroska v0.8.1
Video
ID                                       : 1
Format                                   : AVC
Format/Info                              : Advanced Video Codec
Format profile                           : [email protected]
Format settings, CABAC                   : Yes
Format settings, ReFrames                : 6 frames
Codec ID                                 : V_MPEG4/ISO/AVC
Duration                                 : 22mn 38s
Bit rate                                 : 3 011 Kbps
Width                                    : 1 280 pixels
Height                                   : 720 pixels
Display aspect ratio                     : 16:9
Frame rate mode                          : Constant
Frame rate                               : 23.976 fps
Color space                              : YUV
Chroma subsampling                       : 4:2:0
Bit depth                                : 8 bits
Scan type                                : Progressive
Bits/(Pixel*Frame)                       : 0.136
Stream size                              : 477 MiB (83%)
Writing library                          : x264 core 56
Encoding settings                        : cabac=1 / ref=3 / deblock=1:0:0 / analyse=0x3:0x133 / me=hex / subme=6 / brdo=1 / mixed_ref=0 / me_range=16 / chroma_me=1 / trellis=1 / 8x8dct=1 / cqm=0 / deadzone=21,11 / chroma_qp_offset=0 / threads=6 / nr=0 / decimate=1 / mbaff=0 / bframes=3 / b_pyramid=1 / b_adapt=1 / b_bias=0 / direct=1 / wpredb=1 / bime=1 / keyint=240 / keyint_min=24 / scenecut=40(pre) / rc=2pass / bitrate=3011 / ratetol=1.0 / rceq='blurCplx^(1-qComp)' / qcomp=0.60 / qpmin=10 / qpmax=51 / qpstep=4 / cplxblur=20.0 / qblur=0.5 / ip_ratio=1.40 / pb_ratio=1.30
Language                                 : English
Default                                  : Yes
Forced                                   : No
Audio #1
ID                                       : 2
Format                                   : MPEG Audio
Format version                           : Version 1
Format profile                           : Layer 3
Codec ID                                 : A_MPEG/L3
Codec ID/Hint                            : MP3
Duration                                 : 22mn 38s
Bit rate mode                            : Constant
Bit rate                                 : 128 Kbps
Channel count                            : 2 channels
Sampling rate                            : 48.0 KHz
Compression mode                         : Lossy
Stream size                              : 20.7 MiB (4%)
Language                                 : Russian
Default                                  : Yes
Forced                                   : No
Audio #2
ID                                       : 3
Format                                   : AC-3
Format/Info                              : Audio Coding 3
Mode extension                           : CM (complete main)
Format settings, Endianness              : Big
Codec ID                                 : A_AC3
Duration                                 : 22mn 38s
Bit rate mode                            : Constant
Bit rate                                 : 384 Kbps
Channel count                            : 6 channels
Channel positions                        : Front: L C R, Side: L R, LFE
Sampling rate                            : 48.0 KHz
Bit depth                                : 16 bits
Compression mode                         : Lossy
Stream size                              : 62.2 MiB (11%)
Language                                 : English
Default                                  : No
Forced                                   : No
Код:
Complete name                            : D:\Теория большого взрыва [720p]\Сезон № 2\The.Big.Bang.Theory.S02E01.rus.eng.720p.HDTV.mkv
Format                                   : Matroska
Format version                           : Version 1
File size                                : 618 MiB
Duration                                 : 21mn 21s
Overall bit rate                         : 4 045 Kbps
Encoded date                             : UTC 2008-10-22 15:22:37
Writing application                      : mkvmerge v2.2.0 ('Turn It On Again') built on Mar  4 2008 12:58:26
Writing library                          : libebml v0.7.7 + libmatroska v0.8.1
Video
ID                                       : 1
Format                                   : AVC
Format/Info                              : Advanced Video Codec
Format profile                           : [email protected]
Format settings, CABAC                   : Yes
Format settings, ReFrames                : 3 frames
Codec ID                                 : V_MPEG4/ISO/AVC
Duration                                 : 21mn 21s
Bit rate                                 : 3 272 Kbps
Width                                    : 1 280 pixels
Height                                   : 720 pixels
Display aspect ratio                     : 16:9
Frame rate mode                          : Constant
Frame rate                               : 23.976 fps
Color space                              : YUV
Chroma subsampling                       : 4:2:0
Bit depth                                : 8 bits
Scan type                                : Progressive
Bits/(Pixel*Frame)                       : 0.148
Stream size                              : 488 MiB (79%)
Writing library                          : x264 core 64 r979 6d4af8d
Encoding settings                        : cabac=1 / ref=3 / deblock=1:-1:0 / analyse=0x3:0x133 / me=hex / subme=6 / psy_rd=1.0:0.0 / brdo=0 / mixed_ref=0 / me_range=16 / chroma_me=1 / trellis=1 / 8x8dct=1 / cqm=0 / deadzone=21,11 / chroma_qp_offset=-2 / threads=6 / nr=0 / decimate=1 / mbaff=0 / bframes=3 / b_pyramid=1 / b_adapt=1 / b_bias=0 / direct=1 / wpredb=1 / bime=1 / keyint=250 / keyint_min=25 / scenecut=40(pre) / rc=2pass / bitrate=3272 / ratetol=1.0 / qcomp=0.60 / qpmin=10 / qpmax=51 / qpstep=4 / cplxblur=20.0 / qblur=0.5 / ip_ratio=1.40 / pb_ratio=1.30 / aq=1:1.00
Language                                 : English
Default                                  : Yes
Forced                                   : No
Audio #1
ID                                       : 2
Format                                   : AC-3
Format/Info                              : Audio Coding 3
Mode extension                           : CM (complete main)
Format settings, Endianness              : Big
Codec ID                                 : A_AC3
Duration                                 : 21mn 21s
Bit rate mode                            : Constant
Bit rate                                 : 384 Kbps
Channel count                            : 6 channels
Channel positions                        : Front: L C R, Side: L R, LFE
Sampling rate                            : 48.0 KHz
Bit depth                                : 16 bits
Compression mode                         : Lossy
Stream size                              : 58.6 MiB (9%)
Title                                    : Russian
Language                                 : Russian
Default                                  : Yes
Forced                                   : No
Audio #2
ID                                       : 3
Format                                   : AC-3
Format/Info                              : Audio Coding 3
Mode extension                           : CM (complete main)
Format settings, Endianness              : Big
Codec ID                                 : A_AC3
Duration                                 : 21mn 21s
Bit rate mode                            : Constant
Bit rate                                 : 384 Kbps
Channel count                            : 6 channels
Channel positions                        : Front: L C R, Side: L R, LFE
Sampling rate                            : 48.0 KHz
Bit depth                                : 16 bits
Compression mode                         : Lossy
Stream size                              : 58.6 MiB (9%)
Title                                    : English
Language                                 : English
Default                                  : No
Forced                                   : No
Text
ID                                       : 4
Format                                   : UTF-8
Codec ID                                 : S_TEXT/UTF8
Codec ID/Info                            : UTF-8 Plain Text
Title                                    : Russian
Language                                 : Russian
Default                                  : Yes
Forced                                   : No
Код:
Complete name                            : D:\Теория большого взрыва [720p]\Сезон № 3\The.Big.Bang.Theory.S03E01.rus.eng.720p.HDTV.mkv
Format                                   : Matroska
Format version                           : Version 1
File size                                : 588 MiB
Duration                                 : 21mn 14s
Overall bit rate                         : 3 871 Kbps
Encoded date                             : UTC 2009-09-28 15:05:52
Writing application                      : mkvmerge v2.2.0 ('Turn It On Again') built on Mar  4 2008 12:58:26
Writing library                          : libebml v0.7.7 + libmatroska v0.8.1
Video
ID                                       : 1
Format                                   : AVC
Format/Info                              : Advanced Video Codec
Format profile                           : [email protected]
Format settings, CABAC                   : Yes
Format settings, ReFrames                : 3 frames
Codec ID                                 : V_MPEG4/ISO/AVC
Duration                                 : 21mn 14s
Bit rate                                 : 3 292 Kbps
Width                                    : 1 280 pixels
Height                                   : 720 pixels
Display aspect ratio                     : 16:9
Frame rate mode                          : Constant
Frame rate                               : 23.976 fps
Color space                              : YUV
Chroma subsampling                       : 4:2:0
Bit depth                                : 8 bits
Scan type                                : Progressive
Bits/(Pixel*Frame)                       : 0.149
Stream size                              : 489 MiB (83%)
Writing library                          : x264 core 68 r1184tw
Encoding settings                        : cabac=1 / ref=3 / deblock=1:0:0 / analyse=0x3:0x133 / me=hex / subme=6 / psy_rd=1.0:0.0 / mixed_ref=1 / me_range=16 / chroma_me=1 / trellis=1 / 8x8dct=1 / cqm=0 / deadzone=21,11 / chroma_qp_offset=-2 / threads=14 / nr=0 / decimate=1 / mbaff=0 / bframes=3 / b_pyramid=1 / b_adapt=2 / b_bias=0 / direct=3 / wpredb=1 / keyint=240 / keyint_min=24 / scenecut=40 / rc=2pass / bitrate=3292 / ratetol=1.0 / qcomp=0.60 / qpmin=10 / qpmax=51 / qpstep=4 / cplxblur=20.0 / qblur=0.5 / ip_ratio=1.40 / pb_ratio=1.30 / aq=1:1.00
Language                                 : English
Default                                  : Yes
Forced                                   : No
Audio #1
ID                                       : 2
Format                                   : AC-3
Format/Info                              : Audio Coding 3
Mode extension                           : CM (complete main)
Format settings, Endianness              : Big
Codec ID                                 : A_AC3
Duration                                 : 21mn 14s
Bit rate mode                            : Constant
Bit rate                                 : 192 Kbps
Channel count                            : 2 channels
Channel positions                        : Front: L R
Sampling rate                            : 48.0 KHz
Bit depth                                : 16 bits
Compression mode                         : Lossy
Stream size                              : 29.2 MiB (5%)
Title                                    : Russian
Language                                 : Russian
Default                                  : Yes
Forced                                   : No
Audio #2
ID                                       : 3
Format                                   : AC-3
Format/Info                              : Audio Coding 3
Mode extension                           : CM (complete main)
Format settings, Endianness              : Big
Codec ID                                 : A_AC3
Duration                                 : 21mn 14s
Bit rate mode                            : Constant
Bit rate                                 : 384 Kbps
Channel count                            : 6 channels
Channel positions                        : Front: L C R, Side: L R, LFE
Sampling rate                            : 48.0 KHz
Bit depth                                : 16 bits
Compression mode                         : Lossy
Stream size                              : 58.3 MiB (10%)
Title                                    : English
Language                                 : English
Default                                  : No
Forced                                   : No
Код:
Complete name                            : D:\Теория большого взрыва [720p]\Сезон № 4\The.Big.Bang.Theory.S04E01.rus.eng.720p.HDTV.mkv
Format                                   : Matroska
Format version                           : Version 1
File size                                : 588 MiB
Duration                                 : 21mn 5s
Overall bit rate                         : 3 900 Kbps
Encoded date                             : UTC 2010-09-26 07:50:38
Writing application                      : mkvmerge v2.5.3 ('Boogie') built on Mar  7 2009 15:00:41
Writing library                          : libebml v0.7.7 + libmatroska v0.8.1
Video
ID                                       : 1
Format                                   : AVC
Format/Info                              : Advanced Video Codec
Format profile                           : [email protected]
Format settings, CABAC                   : Yes
Format settings, ReFrames                : 3 frames
Codec ID                                 : V_MPEG4/ISO/AVC
Duration                                 : 21mn 5s
Bit rate                                 : 3 326 Kbps
Width                                    : 1 280 pixels
Height                                   : 720 pixels
Display aspect ratio                     : 16:9
Frame rate mode                          : Constant
Frame rate                               : 23.976 fps
Color space                              : YUV
Chroma subsampling                       : 4:2:0
Bit depth                                : 8 bits
Scan type                                : Progressive
Bits/(Pixel*Frame)                       : 0.151
Stream size                              : 490 MiB (83%)
Title                                    : The Big Bang Theory S04 E01 The Robotic Manipulation
Writing library                          : x264 core 85 r1442tw
Encoding settings                        : cabac=1 / ref=3 / deblock=1:0:0 / analyse=0x3:0x113 / me=hex / subme=6 / psy=1 / psy_rd=1.00:0.00 / mixed_ref=1 / me_range=16 / chroma_me=1 / trellis=1 / 8x8dct=1 / cqm=0 / deadzone=21,11 / fast_pskip=1 / chroma_qp_offset=-2 / threads=25 / sliced_threads=0 / nr=0 / decimate=1 / mbaff=0 / constrained_intra=0 / bframes=3 / b_pyramid=1 / b_adapt=1 / b_bias=0 / direct=1 / wpredb=1 / wpredp=0 / keyint=240 / keyint_min=24 / scenecut=40 / intra_refresh=0 / rc_lookahead=40 / rc=2pass / mbtree=1 / bitrate=3326 / ratetol=1.0 / qcomp=0.60 / qpmin=10 / qpmax=51 / qpstep=4 / cplxblur=20.0 / qblur=0.5 / ip_ratio=1.40 / aq=1:1.00
Language                                 : English
Default                                  : Yes
Forced                                   : No
Audio #1
ID                                       : 2
Format                                   : AC-3
Format/Info                              : Audio Coding 3
Mode extension                           : CM (complete main)
Format settings, Endianness              : Big
Codec ID                                 : A_AC3
Duration                                 : 21mn 5s
Bit rate mode                            : Constant
Bit rate                                 : 192 Kbps
Channel count                            : 2 channels
Channel positions                        : Front: L R
Sampling rate                            : 48.0 KHz
Bit depth                                : 16 bits
Compression mode                         : Lossy
Stream size                              : 29.0 MiB (5%)
Title                                    : AC3 2.0 @ 192 kbps [Кураж-Бамбей]
Language                                 : Russian
Default                                  : Yes
Forced                                   : No
Audio #2
ID                                       : 3
Format                                   : AC-3
Format/Info                              : Audio Coding 3
Mode extension                           : CM (complete main)
Format settings, Endianness              : Big
Codec ID                                 : A_AC3
Duration                                 : 21mn 5s
Bit rate mode                            : Constant
Bit rate                                 : 384 Kbps
Channel count                            : 6 channels
Channel positions                        : Front: L C R, Side: L R, LFE
Sampling rate                            : 48.0 KHz
Bit depth                                : 16 bits
Compression mode                         : Lossy
Stream size                              : 57.9 MiB (10%)
Title                                    : AC3 5.1 @ 384 kbps
Language                                 : English
Default                                  : No
Forced                                   : No
Text #1
ID                                       : 4
Format                                   : UTF-8
Codec ID                                 : S_TEXT/UTF8
Codec ID/Info                            : UTF-8 Plain Text
Language                                 : English
Default                                  : No
Forced                                   : No
Text #2
ID                                       : 5
Format                                   : UTF-8
Codec ID                                 : S_TEXT/UTF8
Codec ID/Info                            : UTF-8 Plain Text
Language                                 : Russian
Default                                  : No
Forced                                   : No
Код:
Complete name                            : D:\Теория большого взрыва [720p]\Сезон № 5\The.Big.Bang.Theory.S05E01.720p.WEB-DL.eng.rus.mkv
Format                                   : Matroska
Format version                           : Version 2
File size                                : 713 MiB
Duration                                 : 21mn 32s
Overall bit rate                         : 4 628 Kbps
Movie name                               : 01 The Skank Reflex Analysis
Encoded date                             : UTC 2011-10-09 19:53:48
Writing application                      : mkvmerge v4.9.1 ('Ich will') built on Sep 21 2011 17:48:11
Writing library                          : libebml v1.2.1 + libmatroska v1.2.0
Video
ID                                       : 1
Format                                   : AVC
Format/Info                              : Advanced Video Codec
Format profile                           : [email protected]
Format settings, CABAC                   : No
Format settings, ReFrames                : 2 frames
Codec ID                                 : V_MPEG4/ISO/AVC
Duration                                 : 21mn 32s
Bit rate                                 : 3 960 Kbps
Width                                    : 1 280 pixels
Height                                   : 720 pixels
Display aspect ratio                     : 16:9
Frame rate mode                          : Constant
Frame rate                               : 23.976 fps
Color space                              : YUV
Chroma subsampling                       : 4:2:0
Bit depth                                : 8 bits
Scan type                                : Progressive
Bits/(Pixel*Frame)                       : 0.179
Stream size                              : 610 MiB (86%)
Language                                 : English
Default                                  : Yes
Forced                                   : No
Color primaries                          : BT.709
Transfer characteristics                 : BT.709
Matrix coefficients                      : BT.709
Audio #1
ID                                       : 2
Format                                   : AC-3
Format/Info                              : Audio Coding 3
Format profile                           : Dolby Digital
Mode extension                           : CM (complete main)
Format settings, Endianness              : Big
Codec ID                                 : A_AC3
Duration                                 : 21mn 32s
Bit rate mode                            : Constant
Bit rate                                 : 192 Kbps
Channel count                            : 2 channels
Channel positions                        : Front: L R
Sampling rate                            : 48.0 KHz
Bit depth                                : 16 bits
Compression mode                         : Lossy
Stream size                              : 29.6 MiB (4%)
Title                                    : AC3 2.0 @ 192 kbps [Кураж-Бамбей]
Language                                 : Russian
Default                                  : Yes
Forced                                   : No
Audio #2
ID                                       : 3
Format                                   : AC-3
Format/Info                              : Audio Coding 3
Mode extension                           : CM (complete main)
Format settings, Endianness              : Big
Codec ID                                 : A_AC3
Duration                                 : 21mn 32s
Bit rate mode                            : Constant
Bit rate                                 : 384 Kbps
Channel count                            : 6 channels
Channel positions                        : Front: L C R, Side: L R, LFE
Sampling rate                            : 48.0 KHz
Bit depth                                : 16 bits
Compression mode                         : Lossy
Stream size                              : 59.2 MiB (8%)
Language                                 : English
Default                                  : No
Forced                                   : No
Text #1
ID                                       : 4
Format                                   : UTF-8
Codec ID                                 : S_TEXT/UTF8
Codec ID/Info                            : UTF-8 Plain Text
Title                                    : [Суверенный Лепрозорий]
Language                                 : Russian
Default                                  : No
Forced                                   : No
Text #2
ID                                       : 5
Format                                   : UTF-8
Codec ID                                 : S_TEXT/UTF8
Codec ID/Info                            : UTF-8 Plain Text
Language                                 : English
Default                                  : No
Forced                                   : No
Код:
Complete name                            : D:\Теория большого взрыва [720p]\Сезон № 6\The.Big.Bang.Theory.S06E01.720p.WEB-DL.Rus.Eng.HDCLUB.mkv
Format                                   : Matroska
Format version                           : Version 2
File size                                : 625 MiB
Duration                                 : 21mn 7s
Overall bit rate                         : 4 137 Kbps
Movie name                               : The Big Bang Theory [Season 6] (2012) - Release for HDCLUB
Encoded date                             : UTC 2012-11-06 11:33:31
Writing application                      : mkvmerge v5.8.0 ('No Sleep / Pillow') built on Sep  2 2012 15:37:04
Writing library                          : libebml v1.2.3 + libmatroska v1.3.0
Video
ID                                       : 1
Format                                   : AVC
Format/Info                              : Advanced Video Codec
Format profile                           : [email protected]
Format settings, CABAC                   : No
Format settings, ReFrames                : 2 frames
Codec ID                                 : V_MPEG4/ISO/AVC
Duration                                 : 21mn 7s
Bit rate                                 : 3 286 Kbps
Width                                    : 1 280 pixels
Height                                   : 720 pixels
Display aspect ratio                     : 16:9
Frame rate mode                          : Constant
Frame rate                               : 23.976 fps
Color space                              : YUV
Chroma subsampling                       : 4:2:0
Bit depth                                : 8 bits
Scan type                                : Progressive
Bits/(Pixel*Frame)                       : 0.149
Stream size                              : 496 MiB (79%)
Title                                    : The Big Bang Theory 6x01: The Date Night Variable - Release for HDCLUB
Language                                 : English
Default                                  : Yes
Forced                                   : No
Color primaries                          : BT.709
Transfer characteristics                 : BT.709
Matrix coefficients                      : BT.709
Audio #1
ID                                       : 2
Format                                   : AC-3
Format/Info                              : Audio Coding 3
Mode extension                           : CM (complete main)
Format settings, Endianness              : Big
Codec ID                                 : A_AC3
Duration                                 : 21mn 7s
Bit rate mode                            : Constant
Bit rate                                 : 384 Kbps
Channel count                            : 6 channels
Channel positions                        : Front: L C R, Side: L R, LFE
Sampling rate                            : 48.0 KHz
Bit depth                                : 16 bits
Compression mode                         : Lossy
Stream size                              : 58.0 MiB (9%)
Language                                 : Russian
Default                                  : Yes
Forced                                   : No
Audio #2
ID                                       : 3
Format                                   : AC-3
Format/Info                              : Audio Coding 3
Mode extension                           : CM (complete main)
Format settings, Endianness              : Big
Codec ID                                 : A_AC3
Duration                                 : 21mn 7s
Bit rate mode                            : Constant
Bit rate                                 : 384 Kbps
Channel count                            : 6 channels
Channel positions                        : Front: L C R, Side: L R, LFE
Sampling rate                            : 48.0 KHz
Bit depth                                : 16 bits
Compression mode                         : Lossy
Stream size                              : 58.0 MiB (9%)
Language                                 : English
Default                                  : No
Forced                                   : No
Text #1
ID                                       : 4
Format                                   : UTF-8
Codec ID                                 : S_TEXT/UTF8
Codec ID/Info                            : UTF-8 Plain Text
Language                                 : Russian
Default                                  : No
Forced                                   : No
Text #2
ID                                       : 5
Format                                   : UTF-8
Codec ID                                 : S_TEXT/UTF8
Codec ID/Info                            : UTF-8 Plain Text
Language                                 : English
Default                                  : No
Forced                                   : No
-Скриншоты:
--Раздавать буду с 01:00 по 8:00
Download / Скачать

Хотите скачать бесплатно? Зарегистрируйтесь на сайте (ссылка на регистрацию). Pirat.ca - самый быстрый торрент трекер в рунете!

Как скачивать  ·   Что такое торрент  ·   Рейтинг и ограничения



Последний раз редактировалось: spidercola86 (2015-03-22 00:20), всего редактировалось 2 раз(а)

Пост 22-Мар-2015 12:41 (спустя 20 часов)

Топик был перенесен из форума Зарубежные сериалы (Трюм) в форум Зарубежные сериалы
kugesan
 
Показать сообщения:    
Ответить на тему

Текущее время: Сегодня 05:04

Часовой пояс: GMT + 4



Вы не можете начинать темы
Вы не можете отвечать на сообщения
Вы не можете редактировать свои сообщения
Вы не можете удалять свои сообщения
Вы не можете голосовать в опросах
Вы не можете прикреплять файлы к сообщениям
Вы не можете скачивать файлы

▼ Вниз