ML
     
  Уважаемый Гость!
Вы можете поддержать проект и зарегистрироваться у наших партнеров - онлайн-стратегия MyLands. При регистрации в игре Вы получите код, который сможете активировать после регистрации на pirat.ca и получить 1000 дублонов.

Ваш код:
0af2e2107bc9b5dd5ac2c09f9fc25e1a77c43887
 
     

Риццоли и Айлс / Rizzoli & Isles / Сезон: 5 / Серии: 1-18 из 18 (Марк Абер / Mark Haber, ...) [2014 г., драма, криминал, детектив, WEB-DLRip] MVO [NewStudio] + Original (Eng)

Ответить на тему
 
Автор
Сообщение

Пост 25-Мар-2015 16:05

[Q] 

Lion15

Корсар

-Риццоли и Айлс / Rizzoli & Isles-- Производство: США, Hurdler Productions, Ostar Productions, Warner Horizon Television
Жанр: драма, криминал, детектив
Год выпуска: 2014 г.
Продолжительность: 00:42:00
Мировая премьера: 12 июля 2010
Российская премьера: 4 апреля 2014
Перевод: Профессиональный (многоголосый, закадровый) [NewStudio]
Оригинальный аудиопоток: английский
Режиссер: Марк Абер / Mark Haber, Майкл Кэтлман / Michael Katleman, Стив Робин / Steve Robin-В ролях: Саша Александер, Энджи Хэрмон, Лоррейн Бракко, Брюс МакГилл, Дженнифер Холлэнд, Джэйсон Блэр, Том Бауэр, Джордан Бриджес, Мариса Рамирез, Кристал Рид, Ли Томпсон Янг, Брайан Гудман, Рик Чэмберс, Райан Джеймс Нолан, Чазз Пальминтери, Майкл Масси, Дэррил Алан Рид, Билли Бёрк, Донни Уолберг, Колин Эглсфилд, Крис Батлер, Джек Конли, Омар Дж. Дорси, Джон Доумен-Описание: Главная героиня сериала — Джейн Риццоли, бостонский детектив, которая вместе с патологоанатомом Морой Айлс раскрывает преступления.-
Качество видео: WEB-DLRip
Контейнер: AVI
Видео кодек: XviD
Аудио кодек: AC3
Видео: 720x400 (1.80:1), 23.976 fps, XviD build 64 ~1535 kbps avg, 0.22 bit/pixel
Аудио: Rus: 48 kHz, MPEG Layer 3, 2 ch, ~128.00 kbps avg (NewStudio)
Аудио #2: Eng: 48 kHz, MPEG Layer 3, 2 ch, ~128.00 kbps avg (Original)
Cубтитры: отсутствуют
General
Complete name : W:\Rizzoli.&.Isles.(s05).NS\Rizzoli.&.Isles.s05e17.WEBDLRip.NewStudio.TV.avi
Format : AVI
Format/Info : Audio Video Interleave
File size : 550 MiB
Duration : 42mn 30s
Overall bit rate : 1 809 Kbps
Writing application : VirtualDubMod 1.5.10.2 (build 2540/release)
Writing library : VirtualDubMod build 2540/release
Video
ID : 0
Format : MPEG-4 Visual
Format profile : Advanced [email protected]
Format settings, BVOP : Yes
Format settings, QPel : No
Format settings, GMC : No warppoints
Format settings, Matrix : Default (MPEG)
Codec ID : XVID
Codec ID/Hint : XviD
Duration : 42mn 30s
Bit rate : 1 539 Kbps
Width : 720 pixels
Height : 400 pixels
Display aspect ratio : 16:9
Frame rate : 23.976 fps
Color space : YUV
Chroma subsampling : 4:2:0
Bit depth : 8 bits
Scan type : Progressive
Bits/(Pixel*Frame) : 0.223
Stream size : 468 MiB (85%)
Writing library : XviD 64
Audio #1
ID : 1
Format : MPEG Audio
Format version : Version 1
Format profile : Layer 3
Mode : Joint stereo
Mode extension : MS Stereo
Codec ID : 55
Codec ID/Hint : MP3
Duration : 42mn 30s
Bit rate mode : Constant
Bit rate : 128 Kbps
Channel(s) : 2 channels
Sampling rate : 48.0 KHz
Stream size : 38.9 MiB (7%)
Alignment : Aligned on interleaves
Interleave, duration : 42 ms (1.00 video frame)
Interleave, preload duration : 504 ms
Audio #2
ID : 2
Format : MPEG Audio
Format version : Version 1
Format profile : Layer 3
Mode : Joint stereo
Mode extension : MS Stereo
Codec ID : 55
Codec ID/Hint : MP3
Duration : 42mn 30s
Bit rate mode : Constant
Bit rate : 128 Kbps
Channel(s) : 2 channels
Sampling rate : 48.0 KHz
Stream size : 38.9 MiB (7%)
Alignment : Aligned on interleaves
Interleave, duration : 42 ms (1.00 video frame)
Interleave, preload duration : 504 ms
Writing library : LAME3.99r
Encoding settings : -m j -V 4 -q 2 -lowpass 17 -b 128
Download / Скачать

Хотите скачать бесплатно? Зарегистрируйтесь на сайте (ссылка на регистрацию). Pirat.ca - самый быстрый торрент трекер в рунете!

Как скачивать  ·   Что такое торрент  ·   Рейтинг и ограничения

jofrei53

Корсар

Пост 25-Мар-2015 22:26 (спустя 6 часов)

[Q] 

ОГРОМНОЕ СПАСИБО!!! Сериал отличный! Автору респект!!! Лови бочку
[Профиль]  [ЛС] 
Показать сообщения:    
Ответить на тему

Текущее время: Сегодня 00:09

Часовой пояс: GMT + 4



Вы не можете начинать темы
Вы не можете отвечать на сообщения
Вы не можете редактировать свои сообщения
Вы не можете удалять свои сообщения
Вы не можете голосовать в опросах
Вы не можете прикреплять файлы к сообщениям
Вы не можете скачивать файлы

▼ Вниз