ML
     
  Уважаемый Гость!
Вы можете поддержать проект и зарегистрироваться у наших партнеров - онлайн-стратегия MyLands. При регистрации в игре Вы получите код, который сможете активировать после регистрации на pirat.ca и получить 1000 дублонов.

Ваш код:
8b752b428cf60a012c159dcae592cd1392170115
 
     

Морская полиция: Новый Орлеан / NCIS: New Orleans / Сезон: 1 / Серии: 1-23 из 23 (Джеймс Хейман / James Hayman, ...) [2014-2015 г., драма, криминал, WEB-DLRip] MVO (BaibaKo) + Original (Eng) [Полный]

Ответить на тему
 
Автор
Сообщение

Пост 27-Мар-2015 11:29

[Q] 

LPPI

-Морская полиция: Новый Орлеан / NCIS: New Orleans- Производство: США, Wings Productions, When Pigs Fly Productions, CBS Television Studios
Жанр: драма, криминал
Год выпуска: 2014-2015 г.-Озвучка:
Перевод: Профессиональный (многоголосый, закадровый)
Оригинальный аудиопоток: английский-Сезон: 1
Серии: 23 из 23 серий
Продолжительность: ~ 00:43:00 мин серия-Режиссер: Джеймс Хейман / James Hayman, Терренс О’Хара / Terrence O'Hara, Оз Скотт / Oz Scott
В ролях: Лукас Блэк, Пейдж Турко, Скотт Бакула, Зои МакЛеллан, Си Си Эйч Паундер, ЛаДжесси Смит, Бриттани Шоу-Описание: История работы службы криминальных расследований ВМС в Новом Орлеане, городе, который является магнитом для военнослужащих в отпуске, желающих как следует поразвлечься.- -Качество видео: WEB-DLRip
Контейнер: AVI
Видео кодек: XviD
Аудио кодек: MP3
Видео: 720x400 (1.80:1), 23.976 fps, XviD build 50 ~1515 kbps avg, 0.22 bit/pixel
Аудио: 48 kHz, MPEG Layer 3, 2 ch, ~192.00 kbps avg - Rus
Аудио #2: 48 kHz, MPEG Layer 3, 2 ch, ~192.00 kbps avg - Eng
Cубтитры: отсутствуют-
1.Музыкант, исцели себя сам
2.Носитель
3.С тюрьмы-корабля - во все тяжкие
4.Начинающие путаны
5.Это случилось прошлой ночью
6.Мастер ужасов
7.Следи за мной
8.Любовь приносит боль
9.Охота на призраков
10.Украденная честь
11.Малёк
12.Бездна
13.Ходячий мертвец
14.Берегись своих желаний
15.Карнавал смерти
16.Братские узы
17.Больше уже сейчас
18.Список
19.Секрет внутри
20.Баю-бай
21.Ты передашь
22.Сколько боли ты сможешь выдержать?
23.Мой город
General
Complete name : D:\NCIS.New.Orleans.s01.WEB-DLRip.Rus.Eng.BaibaKo\NCIS.New.Orleans.s01e01.WEB-DLRip.XviD.Rus.Eng.BaibaKo.tv.avi
Format : AVI
Format/Info : Audio Video Interleave
File size : 571 MiB
Duration : 41mn 43s
Overall bit rate : 1 914 Kbps
Writing application : VirtualDubMod 1.5.10.2 (build 2540/release)
Writing library : VirtualDubMod build 2540/release
Video
ID : 0
Format : MPEG-4 Visual
Format profile : Advanced [email protected]
Format settings, BVOP : 2
Format settings, QPel : No
Format settings, GMC : No warppoints
Format settings, Matrix : Default (H.263)
Codec ID : XVID
Codec ID/Hint : XviD
Duration : 41mn 43s
Bit rate : 1 516 Kbps
Width : 720 pixels
Height : 400 pixels
Display aspect ratio : 16:9
Frame rate : 23.976 fps
Color space : YUV
Chroma subsampling : 4:2:0
Bit depth : 8 bits
Scan type : Progressive
Compression mode : Lossy
Bits/(Pixel*Frame) : 0.220
Stream size : 453 MiB (79%)
Writing library : XviD 1.2.1 (UTC 2008-12-04)
Audio #1
ID : 1
Format : MPEG Audio
Format version : Version 1
Format profile : Layer 3
Mode : Joint stereo
Mode extension : MS Stereo
Codec ID : 55
Codec ID/Hint : MP3
Duration : 41mn 43s
Bit rate mode : Constant
Bit rate : 192 Kbps
Channel(s) : 2 channels
Sampling rate : 48.0 KHz
Compression mode : Lossy
Stream size : 57.3 MiB (10%)
Alignment : Aligned on interleaves
Interleave, duration : 42 ms (1.00 video frame)
Interleave, preload duratio : 504 ms
Audio #2
ID : 2
Format : MPEG Audio
Format version : Version 1
Format profile : Layer 3
Mode : Joint stereo
Mode extension : MS Stereo
Codec ID : 55
Codec ID/Hint : MP3
Duration : 41mn 43s
Bit rate mode : Constant
Bit rate : 192 Kbps
Channel(s) : 2 channels
Sampling rate : 48.0 KHz
Compression mode : Lossy
Stream size : 57.3 MiB (10%)
Alignment : Aligned on interleaves
Interleave, duration : 42 ms (1.00 video frame)
Interleave, preload duratio : 504 ms
-Скриншоты:--
при каждом добавлении создётся новый торрент. Чтобы начать докачку новой серии, пользователям необходимо сделать следующее:
(1) остановить скачивание,
(2) удалить старый торрент у себя из клиента (старые серии удалять не надо),
(3) скачать новый торрент и запустить его у себя в клиенте, при этом указать клиенту путь в старую папку куда и должно происходить скачивание новых серий.
Ваш клиент при этом должен произвести хеширование (проверку) старой папки и будет докачивать только те серии которых у вас ещё нет. Старые серии при этом не удаляются, а продолжают раздаваться!
Eсли вы уже удалили старые серии, то предотвратить повторную закачку старых серий можно, отжав галочку в соответствующих местах при запуске нового торрента. (по возможности, желательно не удалять старые серии как можно дольше чтобы релизёр не столько продолжал раздавать старые серии, а смог сконцентрироваться на новых)
-Добавлена 23 серия первого сезона (Финал)-
Download / Скачать

Хотите скачать бесплатно? Зарегистрируйтесь на сайте (ссылка на регистрацию). Pirat.ca - самый быстрый торрент трекер в рунете!

Как скачивать  ·   Что такое торрент  ·   Рейтинг и ограничения



Последний раз редактировалось: LPPI (2015-06-21 21:11), всего редактировалось 6 раз(а)

Пост 27-Мар-2015 21:33 (спустя 10 часов)

Топик был перенесен из форума Зарубежные сериалы (Трюм) в форум Сериалы в эфире
kugesan
 

LPPI ®

137534

Пост 13-Апр-2015 20:20 (спустя 17 дней)

[Q] 

Добавлена 17, 18 серия первого сезона
[Профиль]  [ЛС] 

LPPI ®

137534

Пост 17-Апр-2015 19:59 (спустя 3 дня)

[Q] 

Добавлена 19 серия первого сезона
[Профиль]  [ЛС] 

jofrei53

Корсар

Пост 17-Апр-2015 23:04 (спустя 3 часа)

[Q] 

Спасибо!!! Автору респект!!! Лови бочку
[Профиль]  [ЛС] 

LPPI ®

137534

Пост 07-Май-2015 17:51 (спустя 19 дней)

[Q] 

Добавлена 20 серия первого сезона
[Профиль]  [ЛС] 

LPPI ®

137534

Пост 23-Май-2015 20:34 (спустя 16 дней)

[Q] 

Добавлена 21 серия первого сезона
[Профиль]  [ЛС] 

madvados1

Морской Волк

Пост 24-Май-2015 13:50 (спустя 17 часов)

[Q] 

посмотримс)))) Спасибо!!! Лови бочку
[Профиль]  [ЛС] 

LPPI ®

137534

Пост 25-Май-2015 14:44 (спустя 1 день)

[Q] 

Добавлена 22 серия первого сезона
[Профиль]  [ЛС] 

spidercola86

3249

Пост 25-Май-2015 15:16 (спустя 32 минуты)

[Q] 

На любителя Спасибо!!!
[Профиль]  [ЛС] 

LPPI ®

137534

Пост 21-Июн-2015 21:11 (спустя 27 дней)

[Q] 

Добавлена 23 серия первого сезона (Финал)
[Профиль]  [ЛС] 

Пост 21-Июн-2015 21:23 (спустя 12 минут)

Топик был перенесен из форума Сериалы в эфире в форум Зарубежные сериалы
Андря
 
Показать сообщения:    
Ответить на тему

Текущее время: Сегодня 06:18

Часовой пояс: GMT + 4



Вы не можете начинать темы
Вы не можете отвечать на сообщения
Вы не можете редактировать свои сообщения
Вы не можете удалять свои сообщения
Вы не можете голосовать в опросах
Вы не можете прикреплять файлы к сообщениям
Вы не можете скачивать файлы

▼ Вниз