ML
     
  Уважаемый Гость!
Вы можете поддержать проект и зарегистрироваться у наших партнеров - онлайн-стратегия MyLands. При регистрации в игре Вы получите код, который сможете активировать после регистрации на pirat.ca и получить 1000 дублонов.

Ваш код:
822959f93c00d34653763d5bbf9ee9a7134af98a
 
     

Лучше звоните Солу / Better Call Saul / Сезон: 1 / Серии: 1-10 (10) (Колин Бакси / Colin Bucksey, ...) [2015 г., драма, комедия, криминал, WEB-DLRip, 720p] MVO (LostFilm, NewStudio) + DVO (Кубик В Кубе) + Original (Eng) + Sub (Rus, Eng)

Ответить на тему
 
Автор
Сообщение

Пост 02-Апр-2015 22:52

[Q] 

TERMOS

Легенда

-Лучше звоните Солу / Better Call Saul
(1 сезон)
-- Производство: США
Жанр: драма, комедия, криминал
Год выпуска: 2015 г.
Продолжительность: 10x ~00:50:00
Мировая премьера: 8 февраля 2015
Перевод: Профессиональный (двухголосый, закадровый) [Кубик В Кубе]
Перевод 2: Профессиональный (многоголосый, закадровый) [LostFilm]
Перевод 3: Профессиональный (многоголосый, закадровый) [NewStudio]
Оригинальный аудиопоток: английский
Режиссер: Колин Бакси / Colin Bucksey, Адам Бернштейн / Adam Bernstein, Винс Гиллиган / Vince Gilligan, ...-В ролях: Боб Оденкёрк, Ри Сихорн, Патрик Фабиан, Майкл МакКин, Майкл Мэндо, Джонатан Бэнкс, Ген Н. Чавес, Алан Хамфри, Джил Мюррэй, Брайан Барела-Описание: История об испытаниях и невзгодах, которые приходится преодолеть Солу Гудману, адвокату по уголовным делам, в тот период, когда он пытается открыть свою собственную адвокатскую контору в Альбукерке, штат Нью-Мексико.
    2002 год, штат Нью-Мексико. У адвоката Джимми Макгила дела идут очень плохо: ни денег, ни клиентов, ни перспектив. Чтобы хоть как-то сводить концы с концами, он вынужден защищать всяких сомнительных нарушителей закона по заказу государства, тогда как крупная рыба все время срывается с его крючка. А еще у Джимми есть старший брат Чак Макгил, попавший в беду и тоже требующий внимания и профессиональной помощи. Но даже Чак не желает прислушиваться к рекомендациям брата и все делает по-своему. Более того, он предлагает Джимми сменить имя, чтобы тот мог заработать авторитет с нуля и продвинуть свою юридическую контору, не полагаясь на репутацию их общей фамилии. Загнанный в угол адвокат начинает подумывать о том, чтобы задействовать нетрадиционные способы поиска клиентов. В его голове рождается хитрая комбинация, которую он решает реализовать с помощью двух юных и жадных до денег скейтеров, но неожиданно все выходит из-под контроля...- - -Качество видео: WEB-DLRip
Источник: WEB-DL (Netflix)
Контейнер: MKV
Стандарт разрешения: 720p
Видео кодек: H.264/AVC
Аудио кодек: AC3
Видео: 1280x720 at 23.976 fps, ~ 3200 kbps avg
Аудио: Russian: 48 kHz, AC3, 3/2 (L,C,R,l,r) + LFE ch, ~384.00 kbps avg |Двухголосый закадровый, Кубик-В-Кубе|
Аудио #2: Russian: 48 kHz, AC3, 3/2 (L,C,R,l,r) + LFE ch, ~384.00 kbps avg |Многоголосый закадровый, LostFilm|
Аудио #3: Russian: 48 kHz, AC3, 3/2 (L,C,R,l,r) + LFE ch, ~384.00 kbps avg |Многоголосый закадровый, NewStudio|
Аудио #4: English: 48 kHz, AC3, 3/2 (L,C,R,l,r) + LFE ch, ~384.00 kbps avg
Cубтитры: Russian (notabenoid.org), English, English Full
01: Uno / Уно
02: Mijo / Михо
03: Nacho / Начо
04: Hero / Герой
05: Alpine Shepherd Boy / Альпийский Пастушок
06: Five-O / Легавые
07: Bingo / Бинго!
08: Rico / Рико
09: Pimento / Пименто
10: Marco / Марко
Код:
General
Unique ID                   : 225176774073138037867249192776537693655 (0xA967781D48050AEFF981EF3014EB5DD7)
Complete name               : J:\Uploads\Pirat.Ca\Better Call Saul - Season 01 (2015)[720p.WEB-DLRip]\Better.Call.Saul.S01E01.720p.WEBRip.3xRus.Eng.Sub.HDCLUB.mkv
Format                      : Matroska
Format version              : Version 4 / Version 2
File size                   : 1.79 GiB
Duration                    : 53mn 17s
Overall bit rate            : 4 801 Kbps
Movie name                  : Better Call Saul 1x01 (2015) - Release for HDCLUB
Encoded date                : UTC 2015-02-27 07:21:00
Writing application         : mkvmerge v7.6.0 ('Garden of Dreams') 64bit
Writing library             : libebml v1.3.1 + libmatroska v1.4.2
Attachements                : Cover
DURATION                    : 00:50:35.100000000
NUMBER_OF_FRAMES            : 806
NUMBER_OF_BYTES             : 45334
_STATISTICS_WRITING_APP     : mkvmerge v7.6.0 ('Garden of Dreams') 64bit
_STATISTICS_WRITING_DATE_UT : 2015-02-27 07:21:00
_STATISTICS_TAGS            : BPS DURATION NUMBER_OF_FRAMES NUMBER_OF_BYTES
Video
ID                          : 1
Format                      : AVC
Format/Info                 : Advanced Video Codec
Format profile              : [email protected]
Format settings, CABAC      : Yes
Format settings, ReFrames   : 9 frames
Codec ID                    : V_MPEG4/ISO/AVC
Duration                    : 53mn 17s
Bit rate                    : 3 169 Kbps
Width                       : 1 280 pixels
Height                      : 720 pixels
Display aspect ratio        : 16:9
Frame rate mode             : Constant
Frame rate                  : 23.976 fps
Color space                 : YUV
Chroma subsampling          : 4:2:0
Bit depth                   : 8 bits
Scan type                   : Progressive
Bits/(Pixel*Frame)          : 0.143
Stream size                 : 1.18 GiB (66%)
Title                       : Better Call Saul 1x01 (2015) - Release for HDCLUB
Writing library             : x264 core 144 r2525 40bb568
Encoding settings           : cabac=1 / ref=9 / deblock=1:-3:-3 / analyse=0x3:0x133 / me=umh / subme=10 / psy=1 / psy_rd=1.00:0.00 / mixed_ref=1 / me_range=48 / chroma_me=1 / trellis=2 / 8x8dct=1 / cqm=0 / deadzone=6,6 / fast_pskip=0 / chroma_qp_offset=-2 / threads=12 / lookahead_threads=2 / sliced_threads=0 / nr=0 / decimate=0 / interlaced=0 / bluray_compat=0 / constrained_intra=0 / bframes=7 / b_pyramid=2 / b_adapt=2 / b_bias=0 / direct=3 / weightb=1 / open_gop=0 / weightp=2 / keyint=250 / keyint_min=24 / scenecut=40 / intra_refresh=0 / rc_lookahead=250 / rc=crf / mbtree=1 / crf=15.5 / qcomp=0.70 / qpmin=0 / qpmax=69 / qpstep=4 / vbv_maxrate=38000 / vbv_bufsize=30000 / crf_max=0.0 / nal_hrd=none / filler=0 / ip_ratio=1.10 / aq=1:0.70
Language                    : English
Default                     : Yes
Forced                      : No
DURATION                    : 00:53:17.111000000
NUMBER_OF_FRAMES            : 76654
NUMBER_OF_BYTES             : 1303538965
_STATISTICS_WRITING_APP     : mkvmerge v7.6.0 ('Garden of Dreams') 64bit
_STATISTICS_WRITING_DATE_UT : 2015-02-27 07:21:00
_STATISTICS_TAGS            : BPS DURATION NUMBER_OF_FRAMES NUMBER_OF_BYTES
Audio #1
ID                          : 2
Format                      : AC-3
Format/Info                 : Audio Coding 3
Mode extension              : CM (complete main)
Format settings, Endianness : Big
Codec ID                    : A_AC3
Duration                    : 53mn 17s
Bit rate mode               : Constant
Bit rate                    : 384 Kbps
Channel(s)                  : 6 channels
Channel positions           : Front: L C R, Side: L R, LFE
Sampling rate               : 48.0 KHz
Bit depth                   : 16 bits
Compression mode            : Lossy
Stream size                 : 146 MiB (8%)
Title                       : KvK
Language                    : Russian
Default                     : Yes
Forced                      : No
Audio #2
ID                          : 3
Format                      : AC-3
Format/Info                 : Audio Coding 3
Mode extension              : CM (complete main)
Format settings, Endianness : Big
Codec ID                    : A_AC3
Duration                    : 53mn 17s
Bit rate mode               : Constant
Bit rate                    : 384 Kbps
Channel(s)                  : 6 channels
Channel positions           : Front: L C R, Side: L R, LFE
Sampling rate               : 48.0 KHz
Bit depth                   : 16 bits
Compression mode            : Lossy
Stream size                 : 146 MiB (8%)
Title                       : LostFilm
Language                    : Russian
Default                     : No
Forced                      : No
Audio #3
ID                          : 4
Format                      : AC-3
Format/Info                 : Audio Coding 3
Mode extension              : CM (complete main)
Format settings, Endianness : Big
Codec ID                    : A_AC3
Duration                    : 53mn 17s
Bit rate mode               : Constant
Bit rate                    : 384 Kbps
Channel(s)                  : 6 channels
Channel positions           : Front: L C R, Side: L R, LFE
Sampling rate               : 48.0 KHz
Bit depth                   : 16 bits
Compression mode            : Lossy
Stream size                 : 146 MiB (8%)
Title                       : NewStudio
Language                    : Russian
Default                     : No
Forced                      : No
Audio #4
ID                          : 5
Format                      : AC-3
Format/Info                 : Audio Coding 3
Mode extension              : CM (complete main)
Format settings, Endianness : Big
Codec ID                    : A_AC3
Duration                    : 53mn 17s
Bit rate mode               : Constant
Bit rate                    : 384 Kbps
Channel(s)                  : 6 channels
Channel positions           : Front: L C R, Side: L R, LFE
Sampling rate               : 48.0 KHz
Bit depth                   : 16 bits
Compression mode            : Lossy
Stream size                 : 146 MiB (8%)
Title                       : English
Language                    : English
Default                     : No
Forced                      : No
Text #1
ID                          : 6
Format                      : UTF-8
Codec ID                    : S_TEXT/UTF8
Codec ID/Info               : UTF-8 Plain Text
Title                       : rus-sub
Language                    : Russian
Default                     : No
Forced                      : No
Text #2
ID                          : 7
Format                      : UTF-8
Codec ID                    : S_TEXT/UTF8
Codec ID/Info               : UTF-8 Plain Text
Title                       : eng-sub
Language                    : English
Default                     : No
Forced                      : No
Text #3
ID                          : 8
Format                      : UTF-8
Codec ID                    : S_TEXT/UTF8
Codec ID/Info               : UTF-8 Plain Text
Title                       : eng-sub CC
Language                    : English
Default                     : No
Forced                      : No
Раздача ведётся путём добавления новых серий; при каждом добавлении создаётся новый торрент.
Чтобы начать докачку новой серии, пользователям необходимо сделать следующее:
1. остановить скачивание,
2. удалить старый торрент у себя из клиента (старые серии удалять не надо),
3. скачать новый торрент и запустить его у себя в клиенте вместо старого, при этом указать клиенту путь в старую папку, куда и должно происходить скачивание новых серий.
Ваш клиент при этом должен произвести хеширование (проверку) старой папки (если не производит сам - помогите ему сделать это), и будет докачивать только те серии которых у вас ещё нет. Старые серии при этом не удаляются, а продолжают раздаваться!
Eсли вы уже удалили старые серии, то предотвратить повторную закачку старых серий можно, отжав галочку в соответствующих местах при запуске нового торрента. По возможности, желательно не удалять старые серии как можно дольше, чтобы релизёр не столько продолжал раздавать старые серии, а смог сконцентрироваться на новых.
Совет для тех, кто не хочет ждать перехеширования:
Создайте ещё одну папку рядом с папкой сериала (рядом, а не в ней!!!). Каждую новую серию после удачной загрузки копируйте в новую папку так чтобы ваша основная папка всегда была пуста. Когда ваш новый торрент предложит вам закачать все файлы, выберете только последнюю. Для сидирования же укажите адрес новой папки.
Download / Скачать

Хотите скачать бесплатно? Зарегистрируйтесь на сайте (ссылка на регистрацию). Pirat.ca - самый быстрый торрент трекер в рунете!

Как скачивать  ·   Что такое торрент  ·   Рейтинг и ограничения



Последний раз редактировалось: TERMOS (2015-04-15 00:28), всего редактировалось 1 раз

TERMOS ®

Легенда

12046

Пост 02-Апр-2015 22:55 (спустя 3 минуты)

[Q] 

Альтернатива моей темы в 1080р. Уж больно она отстаёт. 9-я серия пока в простом WEB-DL.

_________________
[Профиль]  [ЛС] 

pdb08

Легенда

Пост 04-Апр-2015 19:09 (спустя 1 день 20 часов)

[Q] 

Спасибо за труды! Раздающему респект!

_________________
[Профиль]  [ЛС] 

TUS7884

Флибустьер

Пост 05-Апр-2015 17:54 (спустя 22 часа)

[Q] 

класс))) Супер! Всем качать!!!
[Профиль]  [ЛС] 

TUS7884

Флибустьер

Пост 12-Апр-2015 23:53 (спустя 7 дней)

[Q] 

когда 10 серия будет?))))) Кто здесь?
[Профиль]  [ЛС] 

TERMOS ®

Легенда

12046

Пост 13-Апр-2015 00:58 (спустя 1 час 5 минут)

[Q] 

TUS7884, ждём. А что делать - Космическая Пасха. Аплодеры не при делах. az

_________________
[Профиль]  [ЛС] 

TERMOS ®

Легенда

12046

Пост 15-Апр-2015 00:52 (спустя 1 день 23 часа)

[Q] 

Добавлена 10-я серия. Обновите торрент-файл!

_________________
[Профиль]  [ЛС] 

Пост 15-Апр-2015 09:19 (спустя 8 часов)

Топик был перенесен из форума Сериалы в эфире в форум Зарубежные сериалы
kugesan
 

ramzzess1

Шкипер

Пост 26-Сен-2015 03:18 (спустя 5 месяцев 11 дней)

[Q] 

спасибо,качаю
[Профиль]  [ЛС] 

TUS7884

Флибустьер

Пост 04-Янв-2016 10:50 (спустя 3 месяца 8 дней)

[Q] 

включите раздачу Скорость как у черепахи
[Профиль]  [ЛС] 

Hippopotam

Корсар

Пост 27-Фев-2016 13:47 (спустя 1 месяц 23 дня)

[Q] 

Премного благодарен за сериал и за раздачу Автору респект!!! Лови бочку
[Профиль]  [ЛС] 

Pirrama

34

Пост 27-Фев-2016 15:17 (спустя 1 час 30 минут)

[Q] 

О, весь сезон вышел. Забираю. Пасиб!

_________________
Один видит в луже только лужу, а другой, глядя в лужу, видит звезды.
[Профиль]  [ЛС] 
Показать сообщения:    
Ответить на тему

Текущее время: Сегодня 05:53

Часовой пояс: GMT + 4



Вы не можете начинать темы
Вы не можете отвечать на сообщения
Вы не можете редактировать свои сообщения
Вы не можете удалять свои сообщения
Вы не можете голосовать в опросах
Вы не можете прикреплять файлы к сообщениям
Вы не можете скачивать файлы

▼ Вниз