ML
     
  Уважаемый Гость!
Вы можете поддержать проект и зарегистрироваться у наших партнеров - онлайн-стратегия MyLands. При регистрации в игре Вы получите код, который сможете активировать после регистрации на pirat.ca и получить 1000 дублонов.

Ваш код:
fe4e93b754a7c2b306fcfc8bc32532ea1cf59d3b
 
     

Салем / Salem / Сезон: 2 / Серии: 1-13 из 13 (Дэвид Фон Энкен / David Von Ancken, Алекс Закржевский / Alex Zakrzewski, Ник Копус / Nick Copus) [2015 г., фэнтези, триллер, драма, WEB-DL, 1080p] MVO (BaibaKo) + Original (Eng) [Полный]

Ответить на тему
 
Автор
Сообщение

Пост 07-Апр-2015 20:57

[Q] 

LPPI

-Салем / Salem- Производство: США, Tribune Studios, Twentieth Century Fox Television
Жанр: фэнтези, триллер, драма
Год выпуска: 2015 г.-Озвучка:
Перевод: Профессиональный (многоголосый, закадровый)
Оригинальный аудиопоток: английский-Сезон: 2
Серии: 13 из 13 серий
Продолжительность: ~ 00:50:00 мин серия-Режиссер: Дэвид Фон Энкен / David Von Ancken, Алекс Закржевский / Alex Zakrzewski, Ник Копус / Nick Copus
В ролях: Шэйн Уэст, Джанет Монтгомери, Иддо Голдберг, Эжур Дэун, Моргана Шоу, Дайан Салинджер, Сет Гейбл, Ксандер Беркли, Эшли Мадекве, Элиз Эберли, Джон Артур-Описание: Реальные истории охоты на ведьм в Салеме в семнадцатом веке. Сюжет сериала закручен вокруг отважного ветерана войны, который возвращается с полей сражений в родной Салем. Добравшись до родных мест, мужчина обнаруживает, что все местное население охвачено безумием охоты на «ведьм».- -Качество видео: WEB-DL
Контейнер: MKV
Стандарт разрешения: 1080p
Видео кодек: MPEG4 AVC
Аудио кодек: AC3
Видео: 1920x1080 (16:9), 23.976 fps, ~5 092 Kbps
Аудио: AC3, 384 kbps, 6 ch, 48 kHz - Rus
Аудио #2: AC3, 384 kbps, 6 ch, 48 kHz - Eng
Cубтитры: отсутствуют-
1. Ужас хаоса
2. Кровавый поцелуй
3. Изнутри
4. Книга теней
5. Винноцветное море
6. Жестокая Мет в лунном свете
7. Манящая
8. Мертвые птицы
9. Плата за грех
10. Пока смерть не разлучит нас
11. На земле как в аду
12. Midnight Never Come
13. The Witching Hour
General
Unique ID : 250436321715120703434267548339179779940 (0xBC6847F72CB0A65ABD8D639DD5F67764)
Complete name : C:\Users\Ivan\Desktop\Salem s02 1080p WEB-DL BaibaKo\Salem.s02e01.HD1080p.WEB-DL.Rus.Eng.BaibaKo.tv.mkv
Format : Matroska
Format version : Version 4 / Version 2
File size : 2.10 GiB
Duration : 50mn 14s
Overall bit rate : 5 979 Kbps
Encoded date : UTC 2015-04-07 10:21:35
Writing application : mkvmerge v7.4.0 ('Circles') 64bit built on Dec 12 2014 12:19:56
Writing library : libebml v1.3.0 + libmatroska v1.4.1
DURATION : 00:50:14.400000000
NUMBER_OF_FRAMES : 94200
NUMBER_OF_BYTES : 144691200
_STATISTICS_WRITING_APP : mkvmerge v7.4.0 ('Circles') 64bit built on Dec 12 2014 12:19:56
_STATISTICS_WRITING_DATE_UT : 2015-04-07 10:21:35
_STATISTICS_TAGS : BPS DURATION NUMBER_OF_FRAMES NUMBER_OF_BYTES
Video
ID : 1
Format : AVC
Format/Info : Advanced Video Codec
Format profile : [email protected]
Format settings, CABAC : Yes
Format settings, ReFrames : 4 frames
Codec ID : V_MPEG4/ISO/AVC
Duration : 50mn 14s
Bit rate : 5 092 Kbps
Width : 1 920 pixels
Height : 1 080 pixels
Display aspect ratio : 16:9
Frame rate mode : Constant
Frame rate : 23.976 fps
Color space : YUV
Chroma subsampling : 4:2:0
Bit depth : 8 bits
Scan type : Progressive
Bits/(Pixel*Frame) : 0.102
Stream size : 1.79 GiB (85%)
Language : English
Default : Yes
Forced : No
Color primaries : BT.709
Transfer characteristics : BT.709
Matrix coefficients : BT.709
Color range : Limited
Audio #1
ID : 2
Format : AC-3
Format/Info : Audio Coding 3
Mode extension : CM (complete main)
Format settings, Endianness : Big
Codec ID : A_AC3
Duration : 50mn 14s
Bit rate mode : Constant
Bit rate : 384 Kbps
Channel(s) : 6 channels
Channel positions : Front: L C R, Side: L R, LFE
Sampling rate : 48.0 KHz
Bit depth : 16 bits
Compression mode : Lossy
Stream size : 138 MiB (6%)
Language : Russian
Default : Yes
Forced : No
Audio #2
ID : 3
Format : AC-3
Format/Info : Audio Coding 3
Mode extension : CM (complete main)
Format settings, Endianness : Big
Codec ID : A_AC3
Duration : 50mn 14s
Bit rate mode : Constant
Bit rate : 384 Kbps
Channel(s) : 6 channels
Channel positions : Front: L C R, Side: L R, LFE
Sampling rate : 48.0 KHz
Bit depth : 16 bits
Compression mode : Lossy
Stream size : 138 MiB (6%)
Language : English
Default : No
Forced : No
-Скриншоты:--
при каждом добавлении создётся новый торрент. Чтобы начать докачку новой серии, пользователям необходимо сделать следующее:
(1) остановить скачивание,
(2) удалить старый торрент у себя из клиента (старые серии удалять не надо),
(3) скачать новый торрент и запустить его у себя в клиенте, при этом указать клиенту путь в старую папку куда и должно происходить скачивание новых серий.
Ваш клиент при этом должен произвести хеширование (проверку) старой папки и будет докачивать только те серии которых у вас ещё нет. Старые серии при этом не удаляются, а продолжают раздаваться!
Eсли вы уже удалили старые серии, то предотвратить повторную закачку старых серий можно, отжав галочку в соответствующих местах при запуске нового торрента. (по возможности, желательно не удалять старые серии как можно дольше чтобы релизёр не столько продолжал раздавать старые серии, а смог сконцентрироваться на новых)
-Добавлена 13 серия второго сезона (Финал)- -
Download / Скачать

Хотите скачать бесплатно? Зарегистрируйтесь на сайте (ссылка на регистрацию). Pirat.ca - самый быстрый торрент трекер в рунете!

Как скачивать  ·   Что такое торрент  ·   Рейтинг и ограничения



Последний раз редактировалось: LPPI (2015-06-30 18:20), всего редактировалось 13 раз(а)

Nostromizer

Морской Волк

Пост 07-Апр-2015 22:16 (спустя 1 час 19 минут)

[Q] 

Спасибо! Скорости бы ещё ag

_________________
Mark It Zero!
[Профиль]  [ЛС] 

LPPI ®

137534

Пост 16-Апр-2015 19:12 (спустя 8 дней)

[Q] 

Добавлена 2 серия второго сезона
[Профиль]  [ЛС] 

LPPI ®

137534

Пост 21-Апр-2015 16:23 (спустя 4 дня)

[Q] 

Добавлена 3 серия второго сезона
[Профиль]  [ЛС] 

LPPI ®

137534

Пост 28-Апр-2015 11:49 (спустя 6 дней)

[Q] 

Добавлена 4 серия второго сезона
[Профиль]  [ЛС] 

LPPI ®

137534

Пост 05-Май-2015 17:21 (спустя 7 дней)

[Q] 

Добавлена 5 серия второго сезона
[Профиль]  [ЛС] 

LPPI ®

137534

Пост 11-Май-2015 22:51 (спустя 6 дней)

[Q] 

Добавлена 6 серия второго сезона
[Профиль]  [ЛС] 

LPPI ®

137534

Пост 19-Май-2015 12:11 (спустя 7 дней)

[Q] 

Добавлена 7 серия второго сезона
[Профиль]  [ЛС] 

LPPI ®

137534

Пост 26-Май-2015 11:51 (спустя 6 дней)

[Q] 

Добавлена 8 серия второго сезона
[Профиль]  [ЛС] 

spidercola86

3250

Пост 26-Май-2015 13:50 (спустя 1 час 58 минут)

[Q] 

Спасибо!!! Автору респект!!!
[Профиль]  [ЛС] 

LPPI ®

137534

Пост 02-Июн-2015 22:15 (спустя 7 дней)

[Q] 

Добавлена 9 серия второго сезона
[Профиль]  [ЛС] 

LPPI ®

137534

Пост 09-Июн-2015 21:00 (спустя 6 дней)

[Q] 

Добавлена 10 серия второго сезона
[Профиль]  [ЛС] 

OlegFox68

Шкипер

Пост 09-Июн-2015 22:00 (спустя 59 минут)

[Q] 

спасибо заберем
[Профиль]  [ЛС] 

LPPI ®

137534

Пост 16-Июн-2015 10:33 (спустя 6 дней)

[Q] 

Добавлена 11 серия второго сезона
[Профиль]  [ЛС] 

LPPI ®

137534

Пост 23-Июн-2015 14:16 (спустя 7 дней)

[Q] 

Добавлена 12 серия второго сезона
[Профиль]  [ЛС] 

LPPI ®

137534

Пост 30-Июн-2015 18:21 (спустя 7 дней)

[Q] 

Добавлена 13 серия второго сезона (Финал)
[Профиль]  [ЛС] 

янка-сан

Гроза морей

Пост 18-Дек-2015 21:01 (спустя 5 месяцев 18 дней)

[Q] 

благодарю Лови бочку
[Профиль]  [ЛС] 
Показать сообщения:    
Ответить на тему

Текущее время: Сегодня 14:32

Часовой пояс: GMT + 4



Вы не можете начинать темы
Вы не можете отвечать на сообщения
Вы не можете редактировать свои сообщения
Вы не можете удалять свои сообщения
Вы не можете голосовать в опросах
Вы не можете прикреплять файлы к сообщениям
Вы не можете скачивать файлы

▼ Вниз