ML
     
  Уважаемый Гость!
Вы можете поддержать проект и зарегистрироваться у наших партнеров - онлайн-стратегия MyLands. При регистрации в игре Вы получите код, который сможете активировать после регистрации на pirat.ca и получить 1000 дублонов.

Ваш код:
5af7de75d3db09b6a37bc8bab71b0e87ccde73d6
 
     

Американская одиссея / American Odyssey / Сезон: 1 / Серии: 1-13 из 13 (Джэми Пэйн / Jamie Payne, Питер Хортон / Peter Horton) [2015 г., триллер, драма, WEB-DLRip] MVO (BaibaKo) + Original (Eng) [Полный]

Ответить на тему
 
Автор
Сообщение

Пост 09-Апр-2015 16:44

[Q] 

LPPI

-Американская одиссея / American Odyssey- Производство: США, Fabrik Entertainment, NBC Universal Television, Pico Creek Productions
Жанр: триллер, драма
Год выпуска: 2015 г.-Озвучка:
Перевод: Профессиональный (многоголосый, закадровый)
Оригинальный аудиопоток: английский-Сезон: 1
Серии: 13 из 13 серий
Продолжительность: ~ 00:52:00 мин серия-Режиссер: Джэми Пэйн / Jamie Payne, Питер Хортон / Peter Horton
В ролях: ДжонДжош Ромаро, Раджив Пахуджа, Брендан Иган, Джейн Ходишелл, Tracey Lewis, Адевале Акинойе-Агбаже, Tala Ashraife, Шерман Огастас, Джейсон Бабински, Saintura Badeau-Описание: Бедствующая женщина-солдат, разочарованный корпоративный юрист и презираемый политический деятель оказываются вовлечены в международный заговор.- -Качество видео: WEB-DLRip
Контейнер: AVI
Видео кодек: XviD
Аудио кодек: MP3
Видео: 720x400 (1.80:1), 23.976 fps, XviD build 50 ~1501 kbps avg, 0.22 bit/pixel
Аудио: Russian: 48 kHz, MPEG Layer 3, 2 ch, ~192.00 kbps avg
Аудио #2: English: 48 kHz, MPEG Layer 3, 2 ch, ~192.00 kbps avg
Cубтитры: отсутствуют-
01. Gone Elvis
02. Oscar Mike
03. Drop King
04. Tango Uniform
05. Beat Feet
06. Wingman
07. Soup Sandwich
08. Kmag Yoyo
09. Figmo
10. Fubar Bundy
11. Gingerbread
12. Bug Out
13. Real World
General
Complete name : D:\Американская одиссея WEB-DLRip BaibaKo\American.Odyssey.s01e01.WEB-DLRip.XviD.Rus.Eng.BaibaKo.tv.avi
Format : AVI
Format/Info : Audio Video Interleave
File size : 719 MiB
Duration : 52mn 52s
Overall bit rate : 1 901 Kbps
Writing application : VirtualDubMod 1.5.10.2 (build 2540/release)
Writing library : VirtualDubMod build 2540/release
Video
ID : 0
Format : MPEG-4 Visual
Format profile : Advanced [email protected]
Format settings, BVOP : 2
Format settings, QPel : No
Format settings, GMC : No warppoints
Format settings, Matrix : Default (H.263)
Codec ID : XVID
Codec ID/Hint : XviD
Duration : 52mn 52s
Bit rate : 1 503 Kbps
Width : 720 pixels
Height : 400 pixels
Display aspect ratio : 16:9
Frame rate : 23.976 fps
Color space : YUV
Chroma subsampling : 4:2:0
Bit depth : 8 bits
Scan type : Progressive
Compression mode : Lossy
Bits/(Pixel*Frame) : 0.218
Stream size : 568 MiB (79%)
Writing library : XviD 1.2.1 (UTC 2008-12-04)
Audio #1
ID : 1
Format : MPEG Audio
Format version : Version 1
Format profile : Layer 3
Mode : Joint stereo
Mode extension : MS Stereo
Codec ID : 55
Codec ID/Hint : MP3
Duration : 52mn 52s
Bit rate mode : Constant
Bit rate : 192 Kbps
Channel(s) : 2 channels
Sampling rate : 48.0 KHz
Compression mode : Lossy
Stream size : 72.6 MiB (10%)
Alignment : Aligned on interleaves
Interleave, duration : 42 ms (1.00 video frame)
Interleave, preload duratio : 504 ms
Audio #2
ID : 2
Format : MPEG Audio
Format version : Version 1
Format profile : Layer 3
Mode : Joint stereo
Mode extension : MS Stereo
Codec ID : 55
Codec ID/Hint : MP3
Duration : 52mn 52s
Bit rate mode : Constant
Bit rate : 192 Kbps
Channel(s) : 2 channels
Sampling rate : 48.0 KHz
Compression mode : Lossy
Stream size : 72.6 MiB (10%)
Alignment : Aligned on interleaves
Interleave, duration : 42 ms (1.00 video frame)
Interleave, preload duratio : 504 ms
-Скриншоты:---Добавлена 12 и 13 серия первого сезона- -
Download / Скачать

Хотите скачать бесплатно? Зарегистрируйтесь на сайте (ссылка на регистрацию). Pirat.ca - самый быстрый торрент трекер в рунете!

Как скачивать  ·   Что такое торрент  ·   Рейтинг и ограничения



Последний раз редактировалось: LPPI (2015-08-29 10:38), всего редактировалось 11 раз(а)

Пост 11-Апр-2015 11:04 (спустя 1 день 18 часов)

Топик был перенесен из форума Зарубежные сериалы (Трюм) в форум Сериалы в эфире
Андря
 

LPPI ®

137537

Пост 16-Апр-2015 17:31 (спустя 7 дней)

[Q] 

Добавлена 2 серия первого сезона
[Профиль]  [ЛС] 

LPPI ®

137537

Пост 23-Апр-2015 21:37 (спустя 7 дней)

[Q] 

Добавлена 3 серия первого сезона
[Профиль]  [ЛС] 

LPPI ®

137537

Пост 04-Май-2015 12:02 (спустя 10 дней)

[Q] 

Добавлена 4 серия первого сезона
[Профиль]  [ЛС] 

LPPI ®

137537

Пост 06-Май-2015 21:51 (спустя 2 дня 9 часов)

[Q] 

Добавлена 5 серия первого сезона
[Профиль]  [ЛС] 

LPPI ®

137537

Пост 13-Май-2015 12:38 (спустя 6 дней)

[Q] 

Добавлена 6 серия первого сезона
[Профиль]  [ЛС] 

LPPI ®

137537

Пост 20-Май-2015 11:41 (спустя 6 дней)

[Q] 

Добавлена 7 серия первого сезона
[Профиль]  [ЛС] 

TriGun

Морской Волк

Пост 20-Май-2015 17:52 (спустя 6 часов)

[Q] 

Господа,раздайте плз Спасибо!!!

_________________
[Профиль]  [ЛС] 

LPPI ®

137537

Пост 27-Май-2015 12:30 (спустя 6 дней)

[Q] 

Добавлена 8 серия первого сезона
[Профиль]  [ЛС] 

spidercola86

3250

Пост 27-Май-2015 17:20 (спустя 4 часа)

[Q] 

На любителя Спасибо!!!
[Профиль]  [ЛС] 

LPPI ®

137537

Пост 05-Июн-2015 00:14 (спустя 8 дней)

[Q] 

Добавлена 9 серия первого сезона
[Профиль]  [ЛС] 

LPPI ®

137537

Пост 17-Июл-2015 22:02 (спустя 1 месяц 12 дней)

[Q] 

Добавлена 10 серия первого сезона
[Профиль]  [ЛС] 

maxvel911

Морской Волк

Пост 20-Июл-2015 20:20 (спустя 2 дня 22 часа)

[Q] 

И че, как сериал?
[Профиль]  [ЛС] 

LPPI ®

137537

Пост 06-Авг-2015 08:28 (спустя 16 дней)

[Q] 

Добавлена 11 серия первого сезона
[Профиль]  [ЛС] 

LPPI ®

137537

Пост 29-Авг-2015 10:38 (спустя 23 дня)

[Q] 

Добавлена 12 и 13 серия первого сезона
[Профиль]  [ЛС] 

Пост 29-Авг-2015 12:35 (спустя 1 час 56 минут)

Топик был перенесен из форума Сериалы в эфире в форум Зарубежные сериалы
Андря
 

MOHOXPOM

Шкипер

Пост 29-Авг-2015 18:08 (спустя 7 часов)

[Q] 

на Малинина похож ))
[Профиль]  [ЛС] 

jofrei53

Корсар

Пост 30-Авг-2015 10:59 (спустя 16 часов)

[Q] 

Спасибо! Посмотрим...
[Профиль]  [ЛС] 
Показать сообщения:    
Ответить на тему

Текущее время: Сегодня 14:11

Часовой пояс: GMT + 4



Вы не можете начинать темы
Вы не можете отвечать на сообщения
Вы не можете редактировать свои сообщения
Вы не можете удалять свои сообщения
Вы не можете голосовать в опросах
Вы не можете прикреплять файлы к сообщениям
Вы не можете скачивать файлы

▼ Вниз