ML
     
  Уважаемый Гость!
Вы можете поддержать проект и зарегистрироваться у наших партнеров - онлайн-стратегия MyLands. При регистрации в игре Вы получите код, который сможете активировать после регистрации на pirat.ca и получить 1000 дублонов.

Ваш код:
e6008d9811a0b6a1393c3dc51ecd7bc35637bc21
 
     

Убийство на пляже (Бродчерч, Бродчерч - город, окутанный тайнами) / Broadchurch / Сезон: 2 / Серии: 1-8 из 8 (Джеймс Стронг / James Strong, ...) [2015 г., драма, криминал, детектив, WEB-DLRip, BDRip] MVO (BaibaKo) + Original (Eng) [Полный]

Ответить на тему
 
Автор
Сообщение

Пост 10-Апр-2015 17:55

[Q] 

LPPI

-Убийство на пляже (Бродчерч, Бродчерч - город, окутанный тайнами) / Broadchurch- Производство: Великобритания, Kudos Film and Television
Жанр: драма, криминал, детектив
Год выпуска: 2015 г.-Озвучка:
Перевод: Профессиональный (многоголосый, закадровый)
Оригинальный аудиопоток: английский-Сезон: 2
Серии: 8 из 8 серий
Продолжительность: ~ 00:45:00 мин серия-Режиссер: Джеймс Стронг / James Strong, Эрос Лин / Euros Lyn
В ролях: Дэвид Теннант, Оливия Колман, Эндрю Бачан, Джоди Уиттакер, Уилл Меллор, Артур Дарвилл, Джонатан Бэйли, Вики МакКлюр, Шарлотта Бомонт, Джо Симс-Описание: До сих пор терзаемые делом об убийстве 11-летнего Дэнни Латимера детектив-инспектор Алек Харди и детектив-сержант Элли Миллер берут себя в руки и продолжают свою следственную работу, одновременно разбираясь с далеко уводящими последствиями предыдущего дела.- -Качество видео: WEB-DLRip, BDRip
Контейнер: AVI
Видео кодек: XviD
Аудио кодек: MP3
Видео: 720x400 (1.80:1), 25 fps, XviD build 50 ~1501 kbps avg, 0.21 bit/pixel
Аудио: Russian: 48 kHz, MPEG Layer 3, 2 ch, ~128.00 kbps avg
Аудио #2: English: 48 kHz, MPEG Layer 3, 2 ch, ~128.00 kbps avg
Cубтитры: отсутствуют-
General
Complete name : D:\Бродчёрч (сезон 2) Broadchurch (2015) WEB-DLRip - BaibaKo\Broadchurch.s02e01.WEB-DLRip.XviD.Rus.Eng.BaibaKo.tv.avi
Format : AVI
Format/Info : Audio Video Interleave
File size : 572 MiB
Duration : 45mn 5s
Overall bit rate : 1 773 Kbps
Writing application : VirtualDubMod 1.5.10.2 (build 2540/release)
Writing library : VirtualDubMod build 2540/release
Video
ID : 0
Format : MPEG-4 Visual
Format profile : Advanced [email protected]
Format settings, BVOP : 2
Format settings, QPel : No
Format settings, GMC : No warppoints
Format settings, Matrix : Default (H.263)
Codec ID : XVID
Codec ID/Hint : XviD
Duration : 45mn 5s
Bit rate : 1 502 Kbps
Width : 720 pixels
Height : 400 pixels
Display aspect ratio : 16:9
Frame rate : 25.000 fps
Color space : YUV
Chroma subsampling : 4:2:0
Bit depth : 8 bits
Scan type : Progressive
Compression mode : Lossy
Bits/(Pixel*Frame) : 0.209
Stream size : 485 MiB (85%)
Writing library : XviD 1.2.1 (UTC 2008-12-04)
Audio #1
ID : 1
Format : MPEG Audio
Format version : Version 1
Format profile : Layer 3
Mode : Joint stereo
Mode extension : MS Stereo
Codec ID : 55
Codec ID/Hint : MP3
Duration : 45mn 5s
Bit rate mode : Constant
Bit rate : 128 Kbps
Channel(s) : 2 channels
Sampling rate : 48.0 KHz
Compression mode : Lossy
Stream size : 41.3 MiB (7%)
Alignment : Aligned on interleaves
Interleave, duration : 40 ms (1.00 video frame)
Interleave, preload duratio : 504 ms
Audio #2
ID : 2
Format : MPEG Audio
Format version : Version 1
Format profile : Layer 3
Mode : Joint stereo
Mode extension : MS Stereo
Codec ID : 55
Codec ID/Hint : MP3
Duration : 45mn 5s
Bit rate mode : Constant
Bit rate : 128 Kbps
Channel(s) : 2 channels
Sampling rate : 48.0 KHz
Compression mode : Lossy
Stream size : 41.3 MiB (7%)
Alignment : Aligned on interleaves
Interleave, duration : 40 ms (1.00 video frame)
Interleave, preload duratio : 504 ms
Writing library : LAME3.98.4
-Скриншоты:--
при каждом добавлении создётся новый торрент. Чтобы начать докачку новой серии, пользователям необходимо сделать следующее:
(1) остановить скачивание,
(2) удалить старый торрент у себя из клиента (старые серии удалять не надо),
(3) скачать новый торрент и запустить его у себя в клиенте, при этом указать клиенту путь в старую папку куда и должно происходить скачивание новых серий.
Ваш клиент при этом должен произвести хеширование (проверку) старой папки и будет докачивать только те серии которых у вас ещё нет. Старые серии при этом не удаляются, а продолжают раздаваться!
Eсли вы уже удалили старые серии, то предотвратить повторную закачку старых серий можно, отжав галочку в соответствующих местах при запуске нового торрента. (по возможности, желательно не удалять старые серии как можно дольше чтобы релизёр не столько продолжал раздавать старые серии, а смог сконцентрироваться на новых)
-Добавлена 7 и 8 серия (Финал) второго сезона-
Download / Скачать

Хотите скачать бесплатно? Зарегистрируйтесь на сайте (ссылка на регистрацию). Pirat.ca - самый быстрый торрент трекер в рунете!

Как скачивать  ·   Что такое торрент  ·   Рейтинг и ограничения



Последний раз редактировалось: LPPI (2015-08-21 08:25), всего редактировалось 2 раз(а)

kotok60

Лоцман

Пост 11-Июн-2015 22:31 (спустя 2 месяца 1 день)

[Q] 

пичалька, что торрент не обновляется :-(
[Профиль]  [ЛС] 

LPPI ®

137543

Пост 22-Июн-2015 11:25 (спустя 10 дней)

[Q] 

Добавлена 6 серия второго сезона
[Профиль]  [ЛС] 

LPPI ®

137543

Пост 21-Авг-2015 08:26 (спустя 1 месяц 28 дней)

[Q] 

Добавлена 7 и 8 серия (Финал) второго сезона
[Профиль]  [ЛС] 

Dante67

Корсар

Пост 22-Авг-2015 03:26 (спустя 19 часов)

[Q] 

1 канал так понимаю не будет озвучивать...что ж, и на этом спасибо
[Профиль]  [ЛС] 

kotok60

Лоцман

Пост 28-Авг-2015 17:08 (спустя 6 дней)

[Q] 

Встаньте на раздачу ПЛИЗ
[Профиль]  [ЛС] 

rusty_springs

Шкипер

Пост 30-Авг-2015 12:11 (спустя 1 день 19 часов)

[Q] 

Сидеры придите!!!
[Профиль]  [ЛС] 

rusty_springs

Шкипер

Пост 30-Авг-2015 16:35 (спустя 4 часа)

[Q] 

92% и замерло(((
[Профиль]  [ЛС] 
Показать сообщения:    
Ответить на тему

Текущее время: Сегодня 02:04

Часовой пояс: GMT + 4



Вы не можете начинать темы
Вы не можете отвечать на сообщения
Вы не можете редактировать свои сообщения
Вы не можете удалять свои сообщения
Вы не можете голосовать в опросах
Вы не можете прикреплять файлы к сообщениям
Вы не можете скачивать файлы

▼ Вниз