ML
     
  Уважаемый Гость!
Вы можете поддержать проект и зарегистрироваться у наших партнеров - онлайн-стратегия MyLands. При регистрации в игре Вы получите код, который сможете активировать после регистрации на pirat.ca и получить 1000 дублонов.

Ваш код:
9cfe162481db953a6549f32179d7b3900b8b8643
 
     

Карнавал / Carnivàle / Сезон: 2 / Серии: 1-12 (12) (Родриго Гарсия / Rodrigo García, ...) [2005 г., фэнтези, триллер, драма, детектив, WEB-DL, 720p] Dub + MVO (НТВ+) + Original (Eng) + Sub (Rus, Eng)

Ответить на тему
 
Автор
Сообщение

Пост 10-Апр-2015 22:43

[Q] 

TERMOS

Легенда

-Карнавал / Carnivàle
«Their journey. Their battle. Our future»
(2 сезон)
-- Производство: США | HBO
Жанр: фэнтези, триллер, драма, детектив
Год выпуска: 2005 г.
Продолжительность: 12х ~00:50:00
Перевод: Профессиональный (полное дублирование) [Русский дубляж / Домашний]
Перевод 2: Профессиональный (многоголосый, закадровый) [НТВ+ / Амедия]
Оригинальный аудиопоток: английский
Режиссер: Родриго Гарсия / Rodrigo García, Джереми Подесва / Jeremy Podeswa, Джек Бендер / Jack Bender-В ролях: Ник Стал, Клэнси Браун, Майкл Дж. Андерсон, Клеа ДюВалл, Тим ДиКей, Эми Мэдиган, Карла Галло, Роберт Неппер, Джон Кэрролл Линч, Патрик Бошо-Описание: Америка, 1934 год, Средний Запад. 18-летний беглец Бен Хокинс находит приют в странствующем цирке «Карнавал», в котором есть: цыганка Софи, читающая карты Таро, ее парализованная мать, владеющая телекинезом, слепой профессор Лодз, читающий чужие мысли, бородатая женщина Лайла, сиамские близнецы, укротительница змей Руте, а также карлик-надзиратель Самсон.
Владельцем цирка является загадочный Хозяин, который имеет определенные планы относительно молодого Хокинса, поскольку тот скрывает тайный дар. Он может исцелять больных и оживлять мертвых, правда, ценой другой жизни.
А еще у Бена бывают странные сны. И он не единственный, кто их видит. У проповедника из Калифорнии Джастина Кроу, который когда-то встречался с Беном, бывают такие же самые видения. Джастин считает, что выполняет Божью волю. Однако со временем действия священника приводят к странным и трагическим последствиям.
В эту «последнюю большую эпоху магии» конфликт между Беном и Джастином оказывается борьбой Добра и Зла, и неизвестно, кто на чьей стороне.- -Качество видео: WEB-DL
Контейнер: MKV
Стандарт разрешения: 720p
Видео кодек: H.264/AVC
Аудио кодек: AC3
Видео: 1280x720 at 23.976 fps, ~4000 kbps avg
Аудио: Russian: 48 kHz, AC3, 2/0 (L,R) ch, ~192.00 kbps avg |Дубляж, Русский дубляж / Домашний|
Аудио #2: Russian: 48 kHz, AC3, 2/0 (L,R) ch, ~160.00 kbps avg |Многоголосый закадровый, НТВ+ / Амедия|
Аудио #3: English: 48 kHz, AC3, 3/2 (L,C,R,l,r) + LFE ch, ~384.00 kbps avg
Cубтитры: Russian (Amedia), English
Код:
General
Unique ID                   : 208013893829130402038495635226428597931 (0x9C7E04C95A808CA78746F589838A66AB)
Complete name               : D:\Uploads\Pirat.Ca\Carnivale - Season 02 (2005)[720p.WEB-DL]\Carnivale.S02.E01.720p.WEB-DL.Rus.Eng.HDCLUB.mkv
Format                      : Matroska
Format version              : Version 4 / Version 2
File size                   : 1.71 GiB
Duration                    : 50mn 47s
Overall bit rate            : 4 830 Kbps
Movie name                  : ReJIiZ MediaClub by BenderBEST
Encoded date                : UTC 2015-03-23 14:48:09
Writing application         : mkvmerge v6.9.1 ('Blue Panther') 32bit built on Apr 18 2014 18:15:44
Writing library             : libebml v1.3.0 + libmatroska v1.4.1
Video
ID                          : 1
Format                      : AVC
Format/Info                 : Advanced Video Codec
Format profile              : [email protected]
Format settings, CABAC      : No
Format settings, ReFrames   : 2 frames
Format settings, GOP        : N=1
Codec ID                    : V_MPEG4/ISO/AVC
Duration                    : 50mn 47s
Bit rate                    : 3 998 Kbps
Width                       : 1 280 pixels
Height                      : 720 pixels
Display aspect ratio        : 16:9
Frame rate mode             : Constant
Frame rate                  : 23.976 fps
Color space                 : YUV
Chroma subsampling          : 4:2:0
Bit depth                   : 8 bits
Scan type                   : Progressive
Bits/(Pixel*Frame)          : 0.181
Stream size                 : 1.42 GiB (83%)
Language                    : English
Default                     : No
Forced                      : No
Color primaries             : BT.709
Transfer characteristics    : BT.709
Matrix coefficients         : BT.709
Color range                 : Limited
Audio #1
ID                          : 2
Format                      : AC-3
Format/Info                 : Audio Coding 3
Mode extension              : CM (complete main)
Format settings, Endianness : Big
Codec ID                    : A_AC3
Duration                    : 50mn 47s
Bit rate mode               : Constant
Bit rate                    : 192 Kbps
Channel(s)                  : 2 channels
Channel positions           : Front: L R
Sampling rate               : 48.0 KHz
Bit depth                   : 16 bits
Compression mode            : Lossy
Stream size                 : 69.7 MiB (4%)
Title                       : Русский дубляж / Домашний
Language                    : Russian
Default                     : Yes
Forced                      : No
Audio #2
ID                          : 3
Format                      : AC-3
Format/Info                 : Audio Coding 3
Mode extension              : CM (complete main)
Format settings, Endianness : Big
Codec ID                    : A_AC3
Duration                    : 50mn 47s
Bit rate mode               : Constant
Bit rate                    : 160 Kbps
Channel(s)                  : 2 channels
Channel positions           : Front: L R
Sampling rate               : 48.0 KHz
Bit depth                   : 16 bits
Compression mode            : Lossy
Stream size                 : 58.1 MiB (3%)
Title                       : НТВ+ / Амедия
Language                    : Russian
Default                     : No
Forced                      : No
Audio #3
ID                          : 4
Format                      : AC-3
Format/Info                 : Audio Coding 3
Mode extension              : CM (complete main)
Format settings, Endianness : Big
Codec ID                    : A_AC3
Duration                    : 50mn 47s
Bit rate mode               : Constant
Bit rate                    : 384 Kbps
Channel(s)                  : 6 channels
Channel positions           : Front: L C R, Side: L R, LFE
Sampling rate               : 48.0 KHz
Bit depth                   : 16 bits
Compression mode            : Lossy
Stream size                 : 139 MiB (8%)
Language                    : English
Default                     : No
Forced                      : No
Text #1
ID                          : 5
Format                      : UTF-8
Codec ID                    : S_TEXT/UTF8
Codec ID/Info               : UTF-8 Plain Text
Title                       : Amedia
Language                    : Russian
Default                     : No
Forced                      : No
Text #2
ID                          : 6
Format                      : UTF-8
Codec ID                    : S_TEXT/UTF8
Codec ID/Info               : UTF-8 Plain Text
Language                    : English
Default                     : No
Forced                      : No
Download / Скачать

Хотите скачать бесплатно? Зарегистрируйтесь на сайте (ссылка на регистрацию). Pirat.ca - самый быстрый торрент трекер в рунете!

Как скачивать  ·   Что такое торрент  ·   Рейтинг и ограничения

TERMOS ®

Легенда

12039

Пост 10-Апр-2015 22:45 (спустя 1 минута)

[Q] 

Второй и последний сезон Карнавала. А жаль...

_________________
[Профиль]  [ЛС] 

янка-сан

Гроза морей

Пост 18-Дек-2015 20:33 (спустя 8 месяцев 7 дней)

[Q] 

неплохо Лови бочку
[Профиль]  [ЛС] 
Показать сообщения:    
Ответить на тему

Текущее время: Сегодня 06:00

Часовой пояс: GMT + 4



Вы не можете начинать темы
Вы не можете отвечать на сообщения
Вы не можете редактировать свои сообщения
Вы не можете удалять свои сообщения
Вы не можете голосовать в опросах
Вы не можете прикреплять файлы к сообщениям
Вы не можете скачивать файлы

▼ Вниз