ML
     
  Уважаемый Гость!
Вы можете поддержать проект и зарегистрироваться у наших партнеров - онлайн-стратегия MyLands. При регистрации в игре Вы получите код, который сможете активировать после регистрации на pirat.ca и получить 1000 дублонов.

Ваш код:
193c38d0130f05c24de871678ea3ac181461757d
 
     

Сорвиголова / Daredevil / Сезон: 1 / Серии: 1-13 из 13 (Фил Абрахам / Phil Abraham, Стивен С. ДеНайт / Steven S. DeKnight, Кен Джиротти / Ken Girotti) [2015 г., фантастика, боевик, WEBRip, 720p] MVO (BaibaKo) + Original (Eng)

Ответить на тему
 
Автор
Сообщение

Пост 12-Апр-2015 09:08

[Q] 

LPPI

-Сорвиголова / Daredevil- Производство: США, ABC Television Studio, Marvel Entertainment, Walt Disney Company
Жанр: фантастика, боевик
Год выпуска: 2015 г.-Озвучка:
Перевод: Профессиональный (многоголосый, закадровый)
Оригинальный аудиопоток: английский-Сезон: 1
Серии: 13 из 13 серий
Продолжительность: ~ 00:53:00 мин серия-Режиссер: Фил Абрахам / Phil Abraham, Стивен С. ДеНайт / Steven S. DeKnight, Кен Джиротти / Ken Girotti
В ролях: Чарли Кокс, Дебора Энн Уолл, Элден Хенсон, Розарио Доусон, Винсент Д’Онофрио, Айелет Зурер, Боб Гантон, Тоби Мур, Вонди Куртис-Холл, Роб Морган-Описание: Он живёт в мире вечной ночи, но эта темнота заполнена звуками и запахами, её можно попробовать на вкус и потрогать руками. Адвокат Мэтт Мёрдок слеп, но остальные органы чувств у него работают, как у супермена. Днём Мёрдок защищает униженных и оскорблённых в зале суда, а ночью превращается в супергероя в маске, восстанавливая справедливость на улицах города самыми радикальными методами.- -Качество видео: WEBRip
Контейнер: MKV
Стандарт разрешения: 720p
Видео кодек: MPEG4 AVC
Аудио кодек: AC3
Видео: 1280x720 (16:9), 23.976 fps, ~5 515 Kbps, 0.250 bit/pix
Аудио: Russian: AC3, 640 kbps, 6 ch, 48 kHz
Аудио #2: English: AC3, 640 kbps, 6 ch, 48 kHz
Cубтитры: отсутствуют-
1.На ринге
2.Человек из мусорного бака
3.Кролик в метель
4.В крови
5.Мир в огне
6.Изгой
7.Стик
8.Тени в стекле
9.Помяни дьявола
10.Нельсон против Мёрдока
11.Путь праведника
12.Оставшиеся в прошлом
13.Сорвиголова (Финал сезона)
General
Unique ID : 203802888352911641440860564569065634776 (0x9953022FE23DC2D2A812A91596F1BBD8)
Complete name : D:\Сорвиголова s01 WEBRip (720p) BaibaKo\Marvels.Daredevil.s01e01.HD720p.WEBRip.Rus.Eng.BaibaKo.tv.mkv
Format : Matroska
Format version : Version 4 / Version 2
File size : 2.56 GiB
Duration : 53mn 0s
Overall bit rate : 6 919 Kbps
Encoded date : UTC 2015-04-11 19:51:24
Writing application : mkvmerge v7.4.0 ('Circles') 64bit built on Dec 12 2014 12:19:56
Writing library : libebml v1.3.0 + libmatroska v1.4.1
DURATION : 00:53:00.511000000
NUMBER_OF_FRAMES : 76256
NUMBER_OF_BYTES : 2241181228
_STATISTICS_WRITING_APP : mkvmerge v7.4.0 ('Circles') 64bit built on Dec 12 2014 12:19:56
_STATISTICS_WRITING_DATE_UT : 2015-04-11 19:51:24
_STATISTICS_TAGS : BPS DURATION NUMBER_OF_FRAMES NUMBER_OF_BYTES
Video
ID : 1
Format : AVC
Format/Info : Advanced Video Codec
Format profile : [email protected]
Format settings, CABAC : Yes
Format settings, ReFrames : 9 frames
Codec ID : V_MPEG4/ISO/AVC
Duration : 53mn 0s
Bit rate : 5 515 Kbps
Width : 1 280 pixels
Height : 720 pixels
Display aspect ratio : 16:9
Frame rate mode : Constant
Frame rate : 23.976 fps
Color space : YUV
Chroma subsampling : 4:2:0
Bit depth : 8 bits
Scan type : Progressive
Bits/(Pixel*Frame) : 0.250
Stream size : 2.04 GiB (80%)
Writing library : x264 core 144 r2525 40bb568
Encoding settings : cabac=1 / ref=9 / deblock=1:-3:-3 / analyse=0x3:0x133 / me=umh / subme=10 / psy=1 / psy_rd=1.00:0.00 / mixed_ref=1 / me_range=48 / chroma_me=1 / trellis=2 / 8x8dct=1 / cqm=0 / deadzone=21,11 / fast_pskip=0 / chroma_qp_offset=-2 / threads=12 / lookahead_threads=2 / sliced_threads=0 / nr=0 / decimate=0 / interlaced=0 / bluray_compat=0 / constrained_intra=0 / bframes=7 / b_pyramid=2 / b_adapt=2 / b_bias=0 / direct=3 / weightb=1 / open_gop=0 / weightp=2 / keyint=250 / keyint_min=24 / scenecut=40 / intra_refresh=0 / rc_lookahead=150 / rc=crf / mbtree=0 / crf=17.0 / qcomp=0.75 / qpmin=0 / qpmax=69 / qpstep=4 / vbv_maxrate=38000 / vbv_bufsize=30000 / crf_max=0.0 / nal_hrd=none / filler=0 / ip_ratio=1.40 / pb_ratio=1.30 / aq=1:0.70
Default : No
Forced : No
Audio #1
ID : 2
Format : AC-3
Format/Info : Audio Coding 3
Mode extension : CM (complete main)
Format settings, Endianness : Big
Codec ID : A_AC3
Duration : 53mn 0s
Bit rate mode : Constant
Bit rate : 640 Kbps
Channel(s) : 6 channels
Channel positions : Front: L C R, Side: L R, LFE
Sampling rate : 48.0 KHz
Bit depth : 16 bits
Compression mode : Lossy
Stream size : 243 MiB (9%)
Language : Russian
Default : Yes
Forced : No
Audio #2
ID : 3
Format : AC-3
Format/Info : Audio Coding 3
Mode extension : CM (complete main)
Format settings, Endianness : Big
Codec ID : A_AC3
Duration : 53mn 0s
Bit rate mode : Constant
Bit rate : 640 Kbps
Channel(s) : 6 channels
Channel positions : Front: L C R, Side: L R, LFE
Sampling rate : 48.0 KHz
Bit depth : 16 bits
Compression mode : Lossy
Stream size : 243 MiB (9%)
Language : English
Default : No
Forced : No
-Скриншоты:-Добавлена 11, 12, 13 (ФИНАЛ) серия первого сезона-
Download / Скачать

Хотите скачать бесплатно? Зарегистрируйтесь на сайте (ссылка на регистрацию). Pirat.ca - самый быстрый торрент трекер в рунете!

Как скачивать  ·   Что такое торрент  ·   Рейтинг и ограничения



Последний раз редактировалось: LPPI (2015-04-15 16:14), всего редактировалось 5 раз(а)

Пост 12-Апр-2015 11:42 (спустя 2 часа 33 минуты)

Топик был перенесен из форума Зарубежные сериалы (Трюм) в форум Сериалы в эфире
erchine
 

LPPI ®

137537

Пост 14-Апр-2015 01:22 (спустя 1 день 16 часов)

[Q] 

Добавлена 4, 5, 6 серия первого сезонаДобавлено спустя 2 часа 38 минут 26 секунд:Добавлена 7 серия первого сезона
[Профиль]  [ЛС] 

DocSoft

Гроза морей

71

Пост 14-Апр-2015 06:35 (спустя 5 часов)

[Q] 

неужели что-то новенькое
Спасибо !!!

_________________
Всего одна Любовь !
[Профиль]  [ЛС] 

Victorsalata

Корсар

Пост 14-Апр-2015 14:50 (спустя 8 часов)

[Q] 

Оригинальный сериал. Думаю что стоит смотреть.
[Профиль]  [ЛС] 

LPPI ®

137537

Пост 14-Апр-2015 18:03 (спустя 3 часа)

[Q] 

Добавлена 8, 9 серия первого сезона
[Профиль]  [ЛС] 

bolikgeko

Гроза морей

211

Пост 14-Апр-2015 19:00 (спустя 56 минут)

[Q] 

666922Добавлена 8, 9 серия первого сезона
Лови бочку
[Профиль]  [ЛС] 

LPPI ®

137537

Пост 14-Апр-2015 23:57 (спустя 4 часа)

[Q] 

Добавлена 10 серия первого сезона
[Профиль]  [ЛС] 

LPPI ®

137537

Пост 15-Апр-2015 16:14 (спустя 16 часов)

[Q] 

Добавлена 11, 12, 13 (ФИНАЛ) серия первого сезона
[Профиль]  [ЛС] 

Пост 15-Апр-2015 17:20 (спустя 1 час 5 минут)

Топик был перенесен из форума Сериалы в эфире в форум Зарубежные сериалы
Андря
 

spidercola86

3250

Пост 18-Апр-2015 23:54 (спустя 3 дня)

[Q] 

!COOL! Спасибо!!!
[Профиль]  [ЛС] 

янка-сан

Гроза морей

Пост 18-Дек-2015 21:48 (спустя 7 месяцев 29 дней)

[Q] 

благодарю Лови бочку Автору респект!!!
[Профиль]  [ЛС] 
Показать сообщения:    
Ответить на тему

Текущее время: Сегодня 18:05

Часовой пояс: GMT + 4



Вы не можете начинать темы
Вы не можете отвечать на сообщения
Вы не можете редактировать свои сообщения
Вы не можете удалять свои сообщения
Вы не можете голосовать в опросах
Вы не можете прикреплять файлы к сообщениям
Вы не можете скачивать файлы

▼ Вниз