ML
     
  Уважаемый Гость!
Вы можете поддержать проект и зарегистрироваться у наших партнеров - онлайн-стратегия MyLands. При регистрации в игре Вы получите код, который сможете активировать после регистрации на pirat.ca и получить 1000 дублонов.

Ваш код:
ea554e7ed3eacceeae87a8b30a9de3f086c18a84
 
     

Непригодные для свиданий / Undateable / Сезон: 2 / Серии: 1-10 из 10 (Фил Льюис / Phill Lewis, Эрик Дин Ситон / Eric Dean Seaton, Скотт Эллис / Scott Ellis) [2015 г., комедия, WEB-DL, 1080p] MVO (BaibaKo) + Original (Eng) [Полный]

Ответить на тему
 
Автор
Сообщение

Пост 12-Апр-2015 21:52

[Q] 

LPPI

-Непригодные для свиданий / Undateable- Производство: США
Жанр: комедия
Год выпуска: 2015 г.-Озвучка:
Перевод: Профессиональный (многоголосый, закадровый)
Оригинальный аудиопоток: английский-Сезон: 2
Серии: 10 из 10 серий
Продолжительность: ~ 00:22:00 мин серия-Режиссер: Фил Льюис / Phill Lewis, Эрик Дин Ситон / Eric Dean Seaton, Скотт Эллис / Scott Ellis
В ролях: Крис Д’Илайа, Брент Морин, Бьянка Кэйлик, Рик Глассман, Рон Фанчес, Брига Хилэн, Хантер Элизабет, Дэвид Финн, Эрин Бодин, Малиабет Джонсон-Описание: Комедийный сериал расскажет о группе друзей, у которых все не ладится с личной жизнью. Можно даже сказать, что коллеги по несчастью уже согласились со своей участью и даже не предпринимают никаких попыток, а если таковые иногда и случаются, то заведомо их ожидает крах... Но вот однажды к одному из этих парней, Джастину, приезжает профессиональный бездельник и повеса Дэнни Биман. Гость оказывается в окружении чудаков и неудачников, жаждущих романтики. Он начинает учить ребят искусству обольщения.- -Качество видео: WEB-DL
Контейнер: MKV
Стандарт разрешения: 1080p
Видео кодек: MPEG4 AVC
Аудио кодек: AC3
Видео: 1916x1076 (16:9), 23.976 fps, ~5 001 Kbps
Аудио: Russian: AC3, 384 kbps, 6 ch, 48 kHz
Аудио #2: English: AC3, 384 kbps, 6 ch, 48 kHz
Cубтитры: отсутствуют-
1. В бар входит японский бизнесмен
2. В бар входит парень Кэндис
3. В бар входит воображаемый факел
4. В бар заходит дворняга
5. В бар входит священник
6. В бар входят родственные отношения
7. В бар входит живое шоу ч.1
8. В бар входит живое шоу ч.2
9. В бар входит злой судья
10. В бар входит коп номер четыре (Финал сезона)
General
Unique ID : 237896186446681058964544735121222010326 (0xB2F9238FD2C2EB27B284F44BA2EE05D6)
Complete name : D:\Непригодные для свиданий 2015 Сезон 2 WEB-DL 1080p BaibaKo\Undateable.s02e01.HD1080p.WEB-DL.Rus.Eng.BaibaKo.tv.mkv
Format : Matroska
Format version : Version 4 / Version 2
File size : 906 MiB
Duration : 21mn 31s
Overall bit rate : 5 887 Kbps
Encoded date : UTC 2015-04-12 16:57:41
Writing application : mkvmerge v7.4.0 ('Circles') 64bit built on Dec 12 2014 12:19:56
Writing library : libebml v1.3.0 + libmatroska v1.4.1
DURATION : 00:21:31.808000000
NUMBER_OF_FRAMES : 40369
NUMBER_OF_BYTES : 62006784
_STATISTICS_WRITING_APP : mkvmerge v7.4.0 ('Circles') 64bit built on Dec 12 2014 12:19:56
_STATISTICS_WRITING_DATE_UT : 2015-04-12 16:57:41
_STATISTICS_TAGS : BPS DURATION NUMBER_OF_FRAMES NUMBER_OF_BYTES
Video
ID : 1
Format : AVC
Format/Info : Advanced Video Codec
Format profile : [email protected]
Format settings, CABAC : Yes
Format settings, ReFrames : 4 frames
Codec ID : V_MPEG4/ISO/AVC
Duration : 21mn 31s
Bit rate : 5 001 Kbps
Width : 1 916 pixels
Height : 1 076 pixels
Display aspect ratio : 16:9
Frame rate mode : Constant
Frame rate : 23.976 fps
Color space : YUV
Chroma subsampling : 4:2:0
Bit depth : 8 bits
Scan type : Progressive
Bits/(Pixel*Frame) : 0.101
Stream size : 770 MiB (85%)
Language : English
Default : Yes
Forced : No
Color primaries : BT.709
Transfer characteristics : BT.709
Matrix coefficients : BT.709
Color range : Limited
Audio #1
ID : 2
Format : AC-3
Format/Info : Audio Coding 3
Mode extension : CM (complete main)
Format settings, Endianness : Big
Codec ID : A_AC3
Duration : 21mn 31s
Bit rate mode : Constant
Bit rate : 384 Kbps
Channel(s) : 6 channels
Channel positions : Front: L C R, Side: L R, LFE
Sampling rate : 48.0 KHz
Bit depth : 16 bits
Compression mode : Lossy
Stream size : 59.1 MiB (7%)
Language : Russian
Default : Yes
Forced : No
Audio #2
ID : 3
Format : AC-3
Format/Info : Audio Coding 3
Mode extension : CM (complete main)
Format settings, Endianness : Big
Codec ID : A_AC3
Duration : 21mn 31s
Bit rate mode : Constant
Bit rate : 384 Kbps
Channel(s) : 6 channels
Channel positions : Front: L C R, Side: L R, LFE
Sampling rate : 48.0 KHz
Bit depth : 16 bits
Compression mode : Lossy
Stream size : 59.1 MiB (7%)
Language : English
Default : No
Forced : No
-Скриншоты:--Добавлена 9 и 10 серия второго сезона (Финал)-
Download / Скачать

Хотите скачать бесплатно? Зарегистрируйтесь на сайте (ссылка на регистрацию). Pirat.ca - самый быстрый торрент трекер в рунете!

Как скачивать  ·   Что такое торрент  ·   Рейтинг и ограничения



Последний раз редактировалось: LPPI (2015-06-29 20:34), всего редактировалось 6 раз(а)

Пост 12-Апр-2015 21:55 (спустя 2 минуты)

Топик был перенесен из форума Зарубежные сериалы (Трюм) в форум Сериалы в эфире
Андря
 

LPPI ®

137537

Пост 13-Апр-2015 21:13 (спустя 23 часа)

[Q] 

Добавлена 2, 3 серия второго сезона
[Профиль]  [ЛС] 

LPPI ®

137537

Пост 23-Апр-2015 20:42 (спустя 9 дней)

[Q] 

Добавлена 4 серия второго сезона
[Профиль]  [ЛС] 

LPPI ®

137537

Пост 11-Май-2015 10:45 (спустя 17 дней)

[Q] 

Добавлена 5, 6 серия второго сезона
[Профиль]  [ЛС] 

LPPI ®

137537

Пост 24-Май-2015 20:49 (спустя 13 дней)

[Q] 

Добавлена 7 серия второго сезона
[Профиль]  [ЛС] 

LPPI ®

137537

Пост 25-Май-2015 00:42 (спустя 3 часа)

[Q] 

Добавлена 8 серия второго сезона
[Профиль]  [ЛС] 

spidercola86

3250

Пост 25-Май-2015 13:40 (спустя 12 часов)

[Q] 

Автору респект!!!
[Профиль]  [ЛС] 

LPPI ®

137537

Пост 29-Июн-2015 20:34 (спустя 1 месяц 4 дня)

[Q] 

Добавлена 9 и 10 серия второго сезона (Финал)
[Профиль]  [ЛС] 
Показать сообщения:    
Ответить на тему

Текущее время: Сегодня 12:14

Часовой пояс: GMT + 4



Вы не можете начинать темы
Вы не можете отвечать на сообщения
Вы не можете редактировать свои сообщения
Вы не можете удалять свои сообщения
Вы не можете голосовать в опросах
Вы не можете прикреплять файлы к сообщениям
Вы не можете скачивать файлы

▼ Вниз