ML
     
  Уважаемый Гость!
Вы можете поддержать проект и зарегистрироваться у наших партнеров - онлайн-стратегия MyLands. При регистрации в игре Вы получите код, который сможете активировать после регистрации на pirat.ca и получить 1000 дублонов.

Ваш код:
cc3be08b7507661c03e0a2f582d0da3a659ea55a
 
     

Кремниевая долина / Silicon Valley / Сезон: 2 / Серии: 1-10 из 10 (Майк Джадж / Mike Judge) [2015 г., комедия, HDTVRip] MVO (BaibaKo) + Original (Eng) [Полный]

Ответить на тему
 
Автор
Сообщение

Пост 16-Апр-2015 23:13

[Q] 

LPPI

-Кремниевая долина / Silicon Valley- Производство: США
Жанр: комедия
Год выпуска: 2015 г.-Озвучка:
Перевод: Профессиональный (многоголосый, закадровый)
Оригинальный аудиопоток: английский-Сезон: 2
Серии: 10 из 10 серий
Продолжительность: ~ 00:30:00 мин серия-Режиссер: Майк Джадж / Mike Judge
В ролях: Аманда Крю, Эли Мави, Джэйк Бродер, Энди Бакли, Порша Коулмэн, Джимми Оуянг, Остин Абрамс, Victor Achkeev, Джилл Е. Александр, Бобак Бахтиари-Описание: История о группе гиков, готовящих к запуску собственные стартапы в высокотехнологичном центре Сан-Франциско. Главные герои сериала бесплатно проживают в доме местного миллионера, но взамен им придётся отдать по 10% прибыли от будущих проектов.- -Качество видео: HDTVRip
Контейнер: AVI
Видео кодек: XviD
Аудио кодек: MP3
Видео: 720x400 (1.80:1), 23.976 fps, XviD build 50 ~1511 kbps avg, 0.22 bit/pixel
Аудио: Russian: 48 kHz, MPEG Layer 3, 2 ch, ~192.00 kbps avg
Аудио #2: English: 48 kHz, MPEG Layer 3, 2 ch, ~192.00 kbps avg
Cубтитры: отсутствуют-
01. Перестановка на Сэнд Хилл
02. Провальная девальвация
03. Фальшивые деньги
04. Леди
05. Место на сервере
06. Убийство
07. Контент для взрослых
08. Герой и злодей
09. Обязательный арбитраж
10. Два дня Кондора
General
Complete name : D:\Кремниевая долина Сезон 2 2015 HDTVRip BaibaKo\Silicon.Valley.s02e01.HDTVRip.XviD.Rus.Eng.BaibaKo.tv.avi
Format : AVI
Format/Info : Audio Video Interleave
File size : 412 MiB
Duration : 30mn 10s
Overall bit rate : 1 911 Kbps
Writing application : VirtualDubMod 1.5.10.2 (build 2540/release)
Writing library : VirtualDubMod build 2540/release
Video
ID : 0
Format : MPEG-4 Visual
Format profile : Advanced [email protected]
Format settings, BVOP : 2
Format settings, QPel : No
Format settings, GMC : No warppoints
Format settings, Matrix : Default (H.263)
Codec ID : XVID
Codec ID/Hint : XviD
Duration : 30mn 10s
Bit rate : 1 513 Kbps
Width : 720 pixels
Height : 400 pixels
Display aspect ratio : 16:9
Frame rate : 23.976 fps
Color space : YUV
Chroma subsampling : 4:2:0
Bit depth : 8 bits
Scan type : Progressive
Compression mode : Lossy
Bits/(Pixel*Frame) : 0.219
Stream size : 327 MiB (79%)
Writing library : XviD 1.2.1 (UTC 2008-12-04)
Audio #1
ID : 1
Format : MPEG Audio
Format version : Version 1
Format profile : Layer 3
Mode : Joint stereo
Mode extension : MS Stereo
Codec ID : 55
Codec ID/Hint : MP3
Duration : 30mn 10s
Bit rate mode : Constant
Bit rate : 192 Kbps
Channel(s) : 2 channels
Sampling rate : 48.0 KHz
Compression mode : Lossy
Stream size : 41.4 MiB (10%)
Alignment : Aligned on interleaves
Interleave, duration : 42 ms (1.00 video frame)
Interleave, preload duratio : 504 ms
Audio #2
ID : 2
Format : MPEG Audio
Format version : Version 1
Format profile : Layer 3
Mode : Joint stereo
Mode extension : MS Stereo
Codec ID : 55
Codec ID/Hint : MP3
Duration : 30mn 10s
Bit rate mode : Constant
Bit rate : 192 Kbps
Channel(s) : 2 channels
Sampling rate : 48.0 KHz
Compression mode : Lossy
Stream size : 41.4 MiB (10%)
Alignment : Aligned on interleaves
Interleave, duration : 42 ms (1.00 video frame)
Interleave, preload duratio : 504 ms
-Скриншоты:--
при каждом добавлении создётся новый торрент. Чтобы начать докачку новой серии, пользователям необходимо сделать следующее:
(1) остановить скачивание,
(2) удалить старый торрент у себя из клиента (старые серии удалять не надо),
(3) скачать новый торрент и запустить его у себя в клиенте, при этом указать клиенту путь в старую папку куда и должно происходить скачивание новых серий.
Ваш клиент при этом должен произвести хеширование (проверку) старой папки и будет докачивать только те серии которых у вас ещё нет. Старые серии при этом не удаляются, а продолжают раздаваться!
Eсли вы уже удалили старые серии, то предотвратить повторную закачку старых серий можно, отжав галочку в соответствующих местах при запуске нового торрента. (по возможности, желательно не удалять старые серии как можно дольше чтобы релизёр не столько продолжал раздавать старые серии, а смог сконцентрироваться на новых)
-Добавлена 10 серия второго сезона- -
Download / Скачать

Хотите скачать бесплатно? Зарегистрируйтесь на сайте (ссылка на регистрацию). Pirat.ca - самый быстрый торрент трекер в рунете!

Как скачивать  ·   Что такое торрент  ·   Рейтинг и ограничения



Последний раз редактировалось: LPPI (2015-06-18 11:15), всего редактировалось 10 раз(а)

Пост 17-Апр-2015 11:43 (спустя 12 часов)

Топик был перенесен из форума Зарубежные сериалы (Трюм) в форум Сериалы в эфире
Андря
 

kir_ter

Штурман

Пост 17-Апр-2015 19:29 (спустя 20 часов)

[Q] 

Спасибо. Всё круто, но Не качает
[Профиль]  [ЛС] 

LPPI ®

137546

Пост 21-Апр-2015 18:16 (спустя 3 дня)

[Q] 

Добавлена 2 серия второго сезона
[Профиль]  [ЛС] 

LPPI ®

137546

Пост 04-Май-2015 21:18 (спустя 13 дней)

[Q] 

Добавлена 3 серия второго сезона
[Профиль]  [ЛС] 

LPPI ®

137546

Пост 08-Май-2015 20:46 (спустя 3 дня)

[Q] 

Добавлена 4 серия второго сезона
[Профиль]  [ЛС] 

LPPI ®

137546

Пост 15-Май-2015 10:18 (спустя 6 дней)

[Q] 

Добавлена 5 серия второго сезона
[Профиль]  [ЛС] 

spidercola86

3254

Пост 15-Май-2015 10:22 (спустя 3 минуты)

[Q] 

Спасибо!!!
[Профиль]  [ЛС] 

LPPI ®

137546

Пост 20-Май-2015 22:15 (спустя 5 дней)

[Q] 

Добавлена 6 серия второго сезона
[Профиль]  [ЛС] 

LPPI ®

137546

Пост 29-Май-2015 15:13 (спустя 8 дней)

[Q] 

Добавлена 7 серия второго сезона
[Профиль]  [ЛС] 

LPPI ®

137546

Пост 02-Июн-2015 19:58 (спустя 4 дня)

[Q] 

Добавлена 8 серия второго сезона
[Профиль]  [ЛС] 

atomcorp

16

Пост 03-Июн-2015 11:15 (спустя 15 часов)

[Q] 

ох спасибочки. 8 серия прямо очень кстати, заждался уже

_________________
[Профиль]  [ЛС] 

LPPI ®

137546

Пост 09-Июн-2015 21:49 (спустя 6 дней)

[Q] 

Добавлена 9 серия второго сезона
[Профиль]  [ЛС] 

ikea2

Шкипер

Пост 17-Июн-2015 03:55 (спустя 7 дней)

[Q] 

скорей бы 10ю!!!! Вы лучшие!
[Профиль]  [ЛС] 

LPPI ®

137546

Пост 18-Июн-2015 08:38 (спустя 1 день 4 часа)

[Q] 

Добавлена 10 серия второго сезона
[Профиль]  [ЛС] 

YakovKant

Лоцман

Пост 18-Июн-2015 10:05 (спустя 1 час 26 минут)

[Q] 

Спасибо за сериал! Третий сезон будет?
[Профиль]  [ЛС] 

LPPI ®

137546

Пост 18-Июн-2015 10:06 (спустя 48 секунд)

[Q] 

686642Спасибо за сериал! Третий сезон будет?
1 апреля 2016
[Профиль]  [ЛС] 

YakovKant

Лоцман

Пост 18-Июн-2015 11:56 (спустя 1 час 50 минут)

[Q] 

1 апреля 2016
Спасибо! Будем ждать.
Добавлено спустя 1 час 48 минут 32 секунды:
Раздачи нет или как? Не могу скачать десятую серию.
[Профиль]  [ЛС] 

YakovKant

Лоцман

Пост 18-Июн-2015 17:39 (спустя 5 часов)

[Q] 

скачал... медленно, но скачал.
[Профиль]  [ЛС] 
Показать сообщения:    
Ответить на тему

Текущее время: Сегодня 05:06

Часовой пояс: GMT + 4



Вы не можете начинать темы
Вы не можете отвечать на сообщения
Вы не можете редактировать свои сообщения
Вы не можете удалять свои сообщения
Вы не можете голосовать в опросах
Вы не можете прикреплять файлы к сообщениям
Вы не можете скачивать файлы

▼ Вниз