ML
     
  Уважаемый Гость!
Вы можете поддержать проект и зарегистрироваться у наших партнеров - онлайн-стратегия MyLands. При регистрации в игре Вы получите код, который сможете активировать после регистрации на pirat.ca и получить 1000 дублонов.

Ваш код:
a978488e62322cd72e113ab723b8a7fdc10eb9b9
 
     

Игра престолов / Game of Thrones / Сезон: 5 / Серии: 2 из 10 (Алан Тейлор/Alan Taylor) [2015 г., фэнтези, драма, HDTVRip] MVO (LostFilm)

Ответить на тему
 
Автор
Сообщение

Пост 22-Апр-2015 02:46

[Q] 

somemoredark

Боцман

-Игра престолов / Game of Thrones-- Производство: США, Великобритания
Жанр: фэнтези, драма
Год выпуска: 2015 г.
Продолжительность: 00:55:39
Мировая премьера: 17 апреля 2011
Российская премьера: 8 сентября 2011
Дата выхода DVD: 14 февраля 2013
Перевод: Профессиональный (многоголосый, закадровый) [LostFilm]
Режиссер: Алан Тейлор/Alan Taylor-В ролях: Питер Динклэйдж - Тирион Ланнистер, Лина Хиди - Серсея Ланнистер, Эмилия Кларк - Дейенерис Таргариен, Кит Хэрингтон - Джон Сноу, Мэйси Уильямс - Арья Старк, Софи Тёрнер - Санса Старк, Иэн Глен - Джорах Мормонт, Джон Брэдли - Сэмвелл Тарли, Эйдан Гиллен - Петир Бейлиш, Альфи Аллен - Теон Грейджой, Конлет Хилл - Варис, Чарльз Дэнс - Тайвин Ланнистер, Гвендолин Кристи - Бриенна Тарт, Джером Флинн - Бронн, Стивен Диллэйн - Станнис Баратеон, Натали Дормер - Маргери Тирелл, Натали Эммануэль - Миссандея, Лиам Каннингем - Давос Сиворт, Дин-Чарльз Чэпмен - Томмен Баратеон, Карис ван Хаутен - Мелисандра, Майкл Макэлхаттон - Русе Болтон, Ханна Мюрей - Лилли, Кристофер Хивью - Тормунд Великанья Смерть, Михиль Хёйсман - Даарио Нахарис, Иван Реон - Рамси Болтон, Том Влашиха - Якен Хгар, Киаран Хайндс - Манс-Налётчик, Джонатан Прайс - Его Воробейшество-Описание: К концу подходит время благоденствия, и лето, длившееся почти десятилетие, угасает. Вокруг средоточия власти Семи королевств, Железного трона, зреет заговор, и в это непростое время король решает искать поддержки у друга юности Эддарда Старка. В мире, где все — от короля до наемника — рвутся к власти, плетут интриги и готовы вонзить нож в спину, есть место и благородству, состраданию и любви. Между тем, никто не замечает пробуждение тьмы из легенд далеко на Севере — и лишь Стена защищает живых к югу от нее.-
Качество видео: HDTVRip
Контейнер: AVI
Видео кодек: XviD
Аудио кодек: MP3
Видео: Video: 720x400 (1.80:1), 23.976 fps, XviD build 50 ~1423 kbps avg, 0.21 bit/pixel
Аудио: Audio: 48 kHz, MPEG Layer 3, 2 ch, ~188.59 kbps avg
Cубтитры: отсутствуют
Пятый сезон является адаптацией книг «Пира стервятников» и «Танца с драконами» Джорджа Р. Р. Мартина, а также некоторых завершающих глав книги «Буря мечей».
Общее
Формат : AVI
Формат/Информация : Audio Video Interleave
Размер файла : 647 Мбайт
Продолжительность : 55 м.
Режим общего битрейта : Переменный
Общий поток : 1625 Кбит/сек
Программа кодирования : Nandub v1.0rc2
Библиотека кодирования : Nandub build 1853/release
Видео
Идентификатор : 0
Формат : MPEG-4 Visual
Профиль формата : Advanced [email protected]
Параметр BVOP формата : Нет
Параметр QPel формата : Нет
Параметр GMC формата : Без точки перехода
Параметр матрицы формата : Default (H.263)
Идентификатор кодека : XVID
Идентификатор кодека/Подсказка : XviD
Продолжительность : 55 м.
Битрейт : 1424 Кбит/сек
Ширина : 720 пикселей
Высота : 400 пикселей
Соотношение сторон : 16:9
Частота кадров : 23,976 кадра/сек
Цветовое пространство : YUV
Субдискретизация насыщенности : 4:2:0
Битовая глубина : 8 бит
Тип развёртки : Прогрессивная
Метод сжатия : С потерями
Бит/(Пиксели*Кадры) : 0.206
Размер потока : 567 Мбайт (88%)
Библиотека кодирования : XviD 1.2.1 (UTC 2008-12-04)
Аудио
Идентификатор : 1
Формат : MPEG Audio
Версия формата : Version 1
Профиль формата : Layer 3
Режим : Joint stereo
Расширение режима : MS Stereo
Идентификатор кодека : 55
Идентификатор кодека/Подсказка : MP3
Продолжительность : 55 м.
Вид битрейта : Переменный
Битрейт : 192 Кбит/сек
Каналы : 2 канала
Частота : 48,0 КГц
Метод сжатия : С потерями
Размер потока : 75,1 Мбайт (12%)
Выравнивание : Соединение по промежуткам
Продолжительность промежутка : 24 мс. (0,58 видеокадр)
Время предзагрузки промежутка : 431 мс.
Библиотека кодирования : LAME3.97b
Настройки программы : -m j -V 4 -q 3 -lowpass 18.6 --abr 192
Download / Скачать

Хотите скачать бесплатно? Зарегистрируйтесь на сайте (ссылка на регистрацию). Pirat.ca - самый быстрый торрент трекер в рунете!

Как скачивать  ·   Что такое торрент  ·   Рейтинг и ограничения



Последний раз редактировалось: somemoredark (2015-04-22 13:36), всего редактировалось 1 раз

Пост 22-Апр-2015 13:58 (спустя 11 часов)

Топик был перенесен из форума Зарубежные сериалы (Трюм) в форум Зарубежные сериалы
kugesan
 

DocSoft

Гроза морей

71

Пост 22-Апр-2015 23:28 (спустя 20 часов)

[Q] 

Сильный очень проект ! Я настолько красивых сериалов давно не смотрел !

_________________
Всего одна Любовь !
[Профиль]  [ЛС] 

saske_killer

Морской Волк

Пост 25-Апр-2015 11:15 (спустя 2 дня 11 часов)

[Q] 

давно ждал, спасибо
[Профиль]  [ЛС] 
Показать сообщения:    
Ответить на тему

Текущее время: Сегодня 22:06

Часовой пояс: GMT + 4



Вы не можете начинать темы
Вы не можете отвечать на сообщения
Вы не можете редактировать свои сообщения
Вы не можете удалять свои сообщения
Вы не можете голосовать в опросах
Вы не можете прикреплять файлы к сообщениям
Вы не можете скачивать файлы

▼ Вниз