ML
     
  Уважаемый Гость!
Вы можете поддержать проект и зарегистрироваться у наших партнеров - онлайн-стратегия MyLands. При регистрации в игре Вы получите код, который сможете активировать после регистрации на pirat.ca и получить 1000 дублонов.

Ваш код:
8dcb839cf1b47e56d6dc42d17f26b3e4822e9aee
 
     

Уэйуорд Пайнс / Wayward Pines / Сезон: 1 / Серии: 1-10 из 10 (Зал Батманглидж / Zal Batmanglij, ...) [2015 г., драма, детектив, WEB-DL, 720p] MVO (BaibaKo) + Original (Eng) [Полный]

Ответить на тему
 
Автор
Сообщение

Пост 26-Апр-2015 10:31

[Q] 

LPPI

-Уэйуорд Пайнс / Wayward Pines- Производство: США, FX Productions
Жанр: драма, детектив
Год выпуска: 2015 г.-Озвучка:
Перевод: Профессиональный (многоголосый, закадровый)
Оригинальный аудиопоток: английский-Сезон: 1
Серии: 10 из 10 серий
Продолжительность: ~ 00:43:00 мин серия-Режиссер: Зал Батманглидж / Zal Batmanglij, Тим Хантер / Tim Hunter, Нимрод Антал / Nimród Antal
В ролях: Мэтт Диллон, Терренс Ховард, Грета Ли, Мелисса Лео, Шаннин Соссамон, Брюс Блэйн, Айден Чан Арнольд, Шиван Фэллон, Тим Гриффин, Карла Гуджино и др.-Описание: Агент секретной службы Итан Берк приезжает в пасторальный городок Уэйуорд Пайнс в Айдахо, чтобы найти двух пропавших фэбээровцев. Но расследование вместо ответов приносит лишь новые вопросы. Что же происходит в Уэйуорд Пайнс?- -Качество видео: WEB-DL
Контейнер: MKV
Стандарт разрешения: 720p
Видео кодек: MPEG4 AVC
Аудио кодек: AC3
Видео: 1280x720 (16:9), 23.976 fps, ~3 849 Kbps, 0.174 bit/pix
Аудио: Russian: AC3, 384 kbps, 6 ch, 48 kHz
Аудио #2: English: AC3, 384 kbps, 6 ch, 48 kHz
Cубтитры: отсутствуют-
1. Где рай, там и дом
2. Не обсуждай прошлое
3. Наш город, наш закон
4. Один из агентов по недвижимости ушел на пенсию
5. Истина
6. Выбор
7. Предательство
8. Самое дружественное место на Земле
9. Отсчёт
10. Цикл
General
Unique ID : 175401791784123075864768692958351255614 (0x83F52803E8498AF898EB1F92093EE83E)
Complete name : D:\Уэйуорд Пайнс Сезон 1 2015 BaibaKo\Wayward.Pines.s01e01.HD720p.WEB-DL.Rus.Eng.BaibaKo.tv.mkv
Format : Matroska
Format version : Version 4 / Version 2
File size : 1.45 GiB
Duration : 44mn 7s
Overall bit rate : 4 700 Kbps
Encoded date : UTC 2015-05-16 20:08:03
Writing application : mkvmerge v7.9.0 ('Birds') 64bit
Writing library : libebml v1.3.1 + libmatroska v1.4.2
DURATION : 00:44:07.168000000
NUMBER_OF_FRAMES : 82724
NUMBER_OF_BYTES : 127064064
_STATISTICS_WRITING_APP : mkvmerge v7.9.0 ('Birds') 64bit
_STATISTICS_WRITING_DATE_UT : 2015-05-16 20:08:03
_STATISTICS_TAGS : BPS DURATION NUMBER_OF_FRAMES NUMBER_OF_BYTES
Video
ID : 1
Format : AVC
Format/Info : Advanced Video Codec
Format profile : [email protected]
Format settings, CABAC : No
Format settings, ReFrames : 2 frames
Codec ID : V_MPEG4/ISO/AVC
Duration : 44mn 7s
Bit rate : 3 849 Kbps
Width : 1 280 pixels
Height : 720 pixels
Display aspect ratio : 16:9
Frame rate mode : Constant
Frame rate : 23.976 fps
Color space : YUV
Chroma subsampling : 4:2:0
Bit depth : 8 bits
Scan type : Progressive
Bits/(Pixel*Frame) : 0.174
Stream size : 1.18 GiB (82%)
Writing library : x264 core 142 r2479 dd79a61
Encoding settings : cabac=1 / ref=5 / deblock=1:0:0 / analyse=0x3:0x113 / me=umh / subme=8 / psy=1 / psy_rd=1.00:0.00 / mixed_ref=1 / me_range=16 / chroma_me=1 / trellis=1 / 8x8dct=1 / cqm=0 / deadzone=21,11 / fast_pskip=1 / chroma_qp_offset=-2 / threads=12 / lookahead_threads=2 / sliced_threads=0 / nr=0 / decimate=1 / interlaced=0 / bluray_compat=0 / constrained_intra=0 / bframes=3 / b_pyramid=2 / b_adapt=2 / b_bias=0 / direct=3 / weightb=1 / open_gop=0 / weightp=2 / keyint=240 / keyint_min=24 / scenecut=40 / intra_refresh=0 / rc_lookahead=50 / rc=2pass / mbtree=1 / bitrate=3849 / ratetol=1.0 / qcomp=0.60 / qpmin=0 / qpmax=69 / qpstep=4 / cplxblur=20.0 / qblur=0.5 / vbv_maxrate=17500 / vbv_bufsize=17500 / nal_hrd=none / filler=0 / ip_ratio=1.40 / aq=1:1.00
Default : No
Forced : No
Color range : Limited
Color primaries : BT.709
Transfer characteristics : BT.709
Matrix coefficients : BT.709
Audio #1
ID : 2
Format : AC-3
Format/Info : Audio Coding 3
Mode extension : CM (complete main)
Format settings, Endianness : Big
Codec ID : A_AC3
Duration : 44mn 7s
Bit rate mode : Constant
Bit rate : 384 Kbps
Channel(s) : 6 channels
Channel positions : Front: L C R, Side: L R, LFE
Sampling rate : 48.0 KHz
Compression mode : Lossy
Stream size : 121 MiB (8%)
Language : Russian
Default : Yes
Forced : No
Audio #2
ID : 3
Format : AC-3
Format/Info : Audio Coding 3
Mode extension : CM (complete main)
Format settings, Endianness : Big
Codec ID : A_AC3
Duration : 44mn 7s
Bit rate mode : Constant
Bit rate : 384 Kbps
Channel(s) : 6 channels
Channel positions : Front: L C R, Side: L R, LFE
Sampling rate : 48.0 KHz
Compression mode : Lossy
Stream size : 121 MiB (8%)
Language : English
Default : No
Forced : No
-Скриншоты:---Добавлена 9 и 10 серия (Финал) первого сезона- -
Download / Скачать

Хотите скачать бесплатно? Зарегистрируйтесь на сайте (ссылка на регистрацию). Pirat.ca - самый быстрый торрент трекер в рунете!

Как скачивать  ·   Что такое торрент  ·   Рейтинг и ограничения



Последний раз редактировалось: LPPI (2015-07-27 21:56), всего редактировалось 9 раз(а)

LPPI ®

137549

Пост 17-Май-2015 11:20 (спустя 21 день)

[Q] 

Добавлена 1 серия первого сезона
Теперь в качестве WEB-DL
[Профиль]  [ЛС] 

LPPI ®

137549

Пост 23-Май-2015 09:54 (спустя 5 дней)

[Q] 

Добавлена 2 серия первого сезона
[Профиль]  [ЛС] 

LPPI ®

137549

Пост 31-Май-2015 11:49 (спустя 8 дней)

[Q] 

Добавлена 3 серия первого сезона
[Профиль]  [ЛС] 

LPPI ®

137549

Пост 12-Июн-2015 11:00 (спустя 11 дней)

[Q] 

Добавлена 4 серия первого сезона
[Профиль]  [ЛС] 

LPPI ®

137549

Пост 12-Июн-2015 21:15 (спустя 10 часов)

[Q] 

Добавлена 5 серия первого сезона
[Профиль]  [ЛС] 

LPPI ®

137549

Пост 23-Июн-2015 05:59 (спустя 10 дней)

[Q] 

Добавлена 6 серия первого сезона
[Профиль]  [ЛС] 

LPPI ®

137549

Пост 13-Июл-2015 06:19 (спустя 20 дней)

[Q] 

Добавлена 7 серия первого сезона
[Профиль]  [ЛС] 

LPPI ®

137549

Пост 13-Июл-2015 14:24 (спустя 8 часов)

[Q] 

Добавлена 8 серия первого сезона
[Профиль]  [ЛС] 

LPPI ®

137549

Пост 27-Июл-2015 21:56 (спустя 14 дней)

[Q] 

Добавлена 9 и 10 серия (Финал) первого сезона
[Профиль]  [ЛС] 

Пост 28-Июл-2015 01:48 (спустя 3 часа)

Топик был перенесен из форума Сериалы в эфире в форум Зарубежные сериалы
Андря
 
Показать сообщения:    
Ответить на тему

Текущее время: Сегодня 04:19

Часовой пояс: GMT + 4



Вы не можете начинать темы
Вы не можете отвечать на сообщения
Вы не можете редактировать свои сообщения
Вы не можете удалять свои сообщения
Вы не можете голосовать в опросах
Вы не можете прикреплять файлы к сообщениям
Вы не можете скачивать файлы

▼ Вниз