ML
     
  Уважаемый Гость!
Вы можете поддержать проект и зарегистрироваться у наших партнеров - онлайн-стратегия MyLands. При регистрации в игре Вы получите код, который сможете активировать после регистрации на pirat.ca и получить 1000 дублонов.

Ваш код:
ee1288b6f7c09d9d2cb2a0f972aba30460ce9333
 
     

Я – зомби / iZombie / Сезон: 1 / Серии: 1-13 (13) (Майрзи Алмас / Mairzee Almas, ...) [2015 г., ужасы, фантастика, драма, комедия, криминал, HDTVRip, 720p] MVO (NewStudio) + Original (Eng)

Ответить на тему
 
Автор
Сообщение

Пост 26-Апр-2015 17:01

[Q] 

TERMOS

Легенда

-Я – зомби / iZombie
«Kicking ass and taking brains»
(1 сезон)
-- Производство: США
Жанр: ужасы, фантастика, драма, комедия, криминал
Год выпуска: 2015 г.
Продолжительность: 13х ~00:43:00
Перевод: Профессиональный (многоголосый, закадровый) [NewStudio]
Оригинальный аудиопоток: английский
Режиссер: Майрзи Алмас / Mairzee Almas, Роб Томас / Rob Thomas-В ролях: Роуз МакИвер, Малкольм Гудвин, Рахул Коли, Роберт Бакли, Дэвид Андерс, Ник Пурча, Элисон Мичалка, Мэттью МакКоулл, Элиз Гэтьен, Сара-Джейн Редмонд-Описание: В центре сюжета — студентка медицинского факультета Оливия «Лив» Мур, для которой последствия одной из вечеринок стали переломным моментом в жизни, превратившим её в зомби. Жизнерадостная, активная и пышущая здоровьем раньше, теперь Лив похожа на представителя готов — с бледной кожей, тёмными кругами вокруг глаз и почти белыми волосами. Она устраивается на работу в офис коронера, доктора Рави Чакрабарти, чтобы иметь доступ к мозгам, которые ей приходиться есть, чтобы поддерживать свою человеческую сущность. Однако с каждым съеденным ею мозгом она наследует воспоминания трупа. С помощью босса доктора Чакрабарти, узнавшего её секрет, и детектива полиции Клайва Бабино Лив способна разгадывать убийства тех людей, чей мозг она съела.
- - -Качество видео: HDTVRip
Контейнер: MKV
Стандарт разрешения: 720p
Видео кодек: H.264/AVC
Аудио кодек: AC3
Видео: 1280x720 at 23.976 fps, ~4088 kbps avg
Аудио: Russian: 48 kHz, AC3, 3/2 (L,C,R,l,r) + LFE ch, ~448.00 kbps avg |Многоголосый закадровый, NewStudio|
Аудио #2: English: 48 kHz, AC3, 3/2 (L,C,R,l,r) + LFE ch, ~448.00 kbps avg
Cубтитры: отсутствуют
Эпизод 01: Пилот / Pilot
Эпизод 02: Братец, может поделишься мозгом? / Brother, Can You Spare a Brain?
Эпизод 03: Дезинсектор / The Exterminator
Эпизод 04: Лив и типа Клайв / Liv and Let Clive
Эпизод 05: Полет живых мертвецов / Flight of the Living Dead
Эпизод 06: Виртуальная реальность кусается / Virtual Reality Bites
Эпизод 07: Материнство Лив / Maternity Liv
Эпизод 08: Мертвый воздух / Dead Air
Эпизод 09: Мозги патриота / Patriot Brains
Эпизод 10: Мистер Берсерк / Mr. Berserk
Эпизод 11: Астробургер / Astroburger
Эпизод 12: Мёртвая крыса, живая крыса, рыжая крыса, белая крыса / Dead Rat Live Rat Brown Rat White Rat
Эпизод 13: Мир Блэйна / Blaine's World
Код:
General
Unique ID                   : 202399796821601097820277789025966121383 (0x9844C86EFEEC5706ABD57FDB3F2661A7)
Complete name               : Y:\Uploads\Pirat.Ca\iZombie - Season 01 (2015)[720p.HDTVRip]\iZombie.S01E01.Rus.Eng.HDCLUB.mkv
Format                      : Matroska
Format version              : Version 4 / Version 2
File size                   : 1.52 GiB
Duration                    : 42mn 53s
Overall bit rate            : 5 085 Kbps
Movie name                  : iZombie 1x01 (2015) - Release kmarats for HDCLUB
Encoded date                : UTC 2015-04-20 18:44:20
Writing application         : mkvmerge v7.6.0 ('Garden of Dreams') 64bit built on Feb  8 2015 13:04:34
Writing library             : libebml v1.3.1 + libmatroska v1.4.2
DURATION                    : 00:42:52.288000000
NUMBER_OF_FRAMES            : 80384
NUMBER_OF_BYTES             : 144048128
_STATISTICS_WRITING_APP     : mkvmerge v7.6.0 ('Garden of Dreams') 64bit built on Feb  8 2015 13:04:34
_STATISTICS_WRITING_DATE_UT : 2015-04-20 18:44:20
_STATISTICS_TAGS            : BPS DURATION NUMBER_OF_FRAMES NUMBER_OF_BYTES
Video
ID                          : 1
Format                      : AVC
Format/Info                 : Advanced Video Codec
Format profile              : [email protected]
Format settings, CABAC      : Yes
Format settings, ReFrames   : 9 frames
Codec ID                    : V_MPEG4/ISO/AVC
Duration                    : 42mn 53s
Bit rate                    : 4 088 Kbps
Width                       : 1 280 pixels
Height                      : 720 pixels
Display aspect ratio        : 16:9
Frame rate mode             : Constant
Frame rate                  : 23.976 fps
Color space                 : YUV
Chroma subsampling          : 4:2:0
Bit depth                   : 8 bits
Scan type                   : Progressive
Bits/(Pixel*Frame)          : 0.185
Stream size                 : 1.22 GiB (80%)
Title                       : iZombie 1x01 (2015) - Release kmarats for HDCLUB
Writing library             : x264 core 142 r2431 ac76440
Encoding settings           : cabac=1 / ref=9 / deblock=1:-3:-3 / analyse=0x3:0x133 / me=umh / subme=10 / psy=1 / psy_rd=1.05:0.00 / mixed_ref=1 / me_range=28 / chroma_me=1 / trellis=2 / 8x8dct=1 / cqm=0 / deadzone=21,11 / fast_pskip=0 / chroma_qp_offset=-2 / threads=12 / lookahead_threads=1 / sliced_threads=0 / nr=0 / decimate=0 / interlaced=0 / bluray_compat=0 / constrained_intra=0 / bframes=3 / b_pyramid=2 / b_adapt=2 / b_bias=0 / direct=3 / weightb=1 / open_gop=0 / weightp=2 / keyint=240 / keyint_min=23 / scenecut=40 / intra_refresh=0 / rc_lookahead=60 / rc=crf / mbtree=0 / crf=17.0 / qcomp=0.70 / qpmin=0 / qpmax=51 / qpstep=4 / vbv_maxrate=62500 / vbv_bufsize=78125 / crf_max=0.0 / nal_hrd=none / filler=0 / ip_ratio=1.40 / pb_ratio=1.30 / aq=1:0.80
Language                    : English
Default                     : Yes
Forced                      : No
DURATION                    : 00:42:53.738000000
NUMBER_OF_FRAMES            : 61708
NUMBER_OF_BYTES             : 1347304642
_STATISTICS_WRITING_APP     : mkvmerge v7.6.0 ('Garden of Dreams') 64bit built on Feb  8 2015 13:04:34
_STATISTICS_WRITING_DATE_UT : 2015-04-20 18:44:20
_STATISTICS_TAGS            : BPS DURATION NUMBER_OF_FRAMES NUMBER_OF_BYTES
Audio #1
ID                          : 2
Format                      : AC-3
Format/Info                 : Audio Coding 3
Mode extension              : CM (complete main)
Format settings, Endianness : Big
Codec ID                    : A_AC3
Duration                    : 42mn 53s
Bit rate mode               : Constant
Bit rate                    : 448 Kbps
Channel(s)                  : 6 channels
Channel positions           : Front: L C R, Side: L R, LFE
Sampling rate               : 48.0 KHz
Bit depth                   : 16 bits
Compression mode            : Lossy
Stream size                 : 137 MiB (9%)
Title                       : NewStudio
Language                    : Russian
Default                     : Yes
Forced                      : No
Audio #2
ID                          : 3
Format                      : AC-3
Format/Info                 : Audio Coding 3
Mode extension              : CM (complete main)
Format settings, Endianness : Big
Codec ID                    : A_AC3
Duration                    : 42mn 53s
Bit rate mode               : Constant
Bit rate                    : 448 Kbps
Channel(s)                  : 6 channels
Channel positions           : Front: L C R, Side: L R, LFE
Sampling rate               : 48.0 KHz
Bit depth                   : 16 bits
Compression mode            : Lossy
Delay relative to video     : 8ms
Stream size                 : 137 MiB (9%)
Title                       : English
Language                    : English
Default                     : No
Forced                      : No
Download / Скачать

Хотите скачать бесплатно? Зарегистрируйтесь на сайте (ссылка на регистрацию). Pirat.ca - самый быстрый торрент трекер в рунете!

Как скачивать  ·   Что такое торрент  ·   Рейтинг и ограничения



Последний раз редактировалось: TERMOS (2015-06-12 20:03), всего редактировалось 8 раз(а)

TERMOS ®

Легенда

12043

Пост 26-Апр-2015 17:04 (спустя 2 минуты)

[Q] 

Зацепило. ag Тоже решил поделиться)

_________________
[Профиль]  [ЛС] 

Пост 26-Апр-2015 18:49 (спустя 1 час 45 минут)

Топик был перенесен из форума Зарубежные сериалы (Трюм) в форум Сериалы в эфире
Андря
 

TERMOS ®

Легенда

12043

Пост 02-Май-2015 16:16 (спустя 5 дней)

[Q] 

Добавлена 7-я серия. Обновите торрент-файл!

_________________
[Профиль]  [ЛС] 

TERMOS ®

Легенда

12043

Пост 14-Май-2015 21:14 (спустя 12 дней)

[Q] 

Добавлена 8-я серия. Обновите торрент-файл!

_________________
[Профиль]  [ЛС] 

TERMOS ®

Легенда

12043

Пост 17-Май-2015 08:59 (спустя 2 дня 11 часов)

[Q] 

Добавлена 9-я серия. Обновите торрент-файл!

_________________
[Профиль]  [ЛС] 

TERMOS ®

Легенда

12043

Пост 23-Май-2015 13:12 (спустя 6 дней)

[Q] 

Заменено несколько серий. Добавлена 10-я серия. Обновите торрент-файл!

_________________
[Профиль]  [ЛС] 

kloctuk

3312

Пост 23-Май-2015 15:38 (спустя 2 часа 26 минут)

[Q] 

Полного источника не было: Никогда ((

_________________
-выстрели еще разок. -зачем? - его душа еще танцует...
На форуме  [Профиль]  [ЛС] 

TERMOS ®

Легенда

12043

Пост 23-Май-2015 15:53 (спустя 14 минут)

[Q] 

kloctuk, меня со вчерашнего дня не видно. DHT включите и в клиенте и в свойствах торрента. Пров банит трекер.

_________________
[Профиль]  [ЛС] 

kloctuk

3312

Пост 23-Май-2015 21:12 (спустя 5 часов)

[Q] 

Премного благодарен за инфу,
Хотя... Включено было, в торренте внизу. А что за клиент? Ссылочку можно на инфу?

_________________
-выстрели еще разок. -зачем? - его душа еще танцует...
На форуме  [Профиль]  [ЛС] 

TERMOS ®

Легенда

12043

Пост 23-Май-2015 21:38 (спустя 26 минут)

[Q] 

kloctuk, Клиент - ваш uTorrent. Включение внизу не помогает. В свойствах каждего торрента включите DHT.

_________________
[Профиль]  [ЛС] 

TERMOS ®

Легенда

12043

Пост 25-Май-2015 22:30 (спустя 2 дня)

[Q] 

Замена 8-9 серии: порезана реклама в звуке, замена 10 серии : пропер NewStudio. Обновите торрент-файл!

_________________
[Профиль]  [ЛС] 

spidercola86

3251

Пост 26-Май-2015 10:52 (спустя 12 часов)

[Q] 

Спасибо!!! Автору респект!!!
[Профиль]  [ЛС] 

kulic

Лоцман

Пост 26-Май-2015 13:27 (спустя 2 часа 35 минут)

[Q] 

а где 11,12 и 13 серии?
[Профиль]  [ЛС] 

TERMOS ®

Легенда

12043

Пост 30-Май-2015 15:45 (спустя 4 дня)

[Q] 

Замена 2-й серии - переделан звук. Добавлена 11-я серия. Обновите торрент-файл!

_________________
[Профиль]  [ЛС] 

TERMOS ®

Легенда

12043

Пост 06-Июн-2015 11:36 (спустя 6 дней)

[Q] 

Добавлена 12-я серия. Обновите торрент-файл!

_________________
[Профиль]  [ЛС] 

TERMOS ®

Легенда

12043

Пост 12-Июн-2015 20:04 (спустя 6 дней)

[Q] 

Добавлена 13-я серия. Финал сезона! Обновите торрент-файл!

_________________
[Профиль]  [ЛС] 

Пост 16-Июн-2015 01:40 (спустя 3 дня)

Топик был перенесен из форума Сериалы в эфире в форум Зарубежные сериалы
Андря
 
Показать сообщения:    
Ответить на тему

Текущее время: Сегодня 18:20

Часовой пояс: GMT + 4



Вы не можете начинать темы
Вы не можете отвечать на сообщения
Вы не можете редактировать свои сообщения
Вы не можете удалять свои сообщения
Вы не можете голосовать в опросах
Вы не можете прикреплять файлы к сообщениям
Вы не можете скачивать файлы

▼ Вниз