ML
     
  Уважаемый Гость!
Вы можете поддержать проект и зарегистрироваться у наших партнеров - онлайн-стратегия MyLands. При регистрации в игре Вы получите код, который сможете активировать после регистрации на pirat.ca и получить 1000 дублонов.

Ваш код:
c3360d664ceb84802c84b88ed062a5d134e2ba97
 
     

Типа счастье / Happyish / Сезон: 1 / Серии: 1-10 из 10 (Кен Куопис / Ken Kwapis, ...) [2015 г., драма, комедия, HDTV, 720p] MVO (BaibaKo) + Original (Eng) [Полный]

Ответить на тему
 
Автор
Сообщение

Пост 27-Апр-2015 17:21

[Q] 

LPPI

- -Типа счастье / Happyish- Производство: США, Cooper's Town Productions, In Cahoots
Жанр: драма, комедия
Год выпуска: 2015 г.-Озвучка:
Перевод: Профессиональный (многоголосый, закадровый)
Оригинальный аудиопоток: английский-Сезон: 1
Серии: 10 из 10 серий
Продолжительность: ~ 00:30:00 мин серия-Режиссер: Кен Куопис / Ken Kwapis, Гейл Манкусо / Gail Mancuso, Кен Уиттингэм / Ken Whittingham
В ролях: Кэтрин Хан, Стив Куган, Эллен Баркин, Кэрри Престон, Доротея Свияк, Брэдли Уитфорд, Нильс Лоутон, Тобиаш Сигал, Лорен Кулпеппер-Описание: В культуре, которая чтит молодое поколение, Тому необходимо выяснить, что же является его целью теперь, когда он находится на полпути к смерти и никому не интересно то, о чем он думает…- -Качество видео: HDTV
Контейнер: MKV
Стандарт разрешения: 720p
Видео кодек: MPEG4 AVC
Аудио кодек: AC3
Видео: 1280x720 (16:9), 23.976 fps, ~2 248 Kbps
Аудио: Russian: AC3, 384 kbps, 6 ch, 48 kHz
Аудио #2: English: AC3, 384 kbps, 6 ch, 48 kHz
Cубтитры: отсутствуют
Внимание! В сериале используются нецензурная лексика и шокирующие сцены! -
1. В ролях: Сэмюел Беккет, Альбер Камю и доктор Алоис Альцгеймер
2. В ролях: Марк Шагал, Абуэла и Адольф Гитлер
3. В ролях: Владимир Набоков, Гиппократ и Господь
4. В ролях: Зигмунд Фрейд, Чарльз Буковски и семь миллиардов **отверстий
5. В ролях: Джози Уэльс, Иисус Христос и New York Times
6. В ролях: Хелен Келлер, Моисей и Ленни Брюса
7. В ролях: Дэвид Огилви, Антон Чехов и глютеновой энтеропатии
8. В ролях: Рене Декарт, Adweek и Его Королевское Высочество Принцесса Arendelle
9. В ролях: г-н Майк Маккарти, Джозеф Альфред Бернхард и Нобеля
10. В ролях: Кристофер Хитченс, Филип Ларкин и Иосифа Сталина
General
Unique ID : 253412710441233871056347771012247383193 (0xBEA58342736EDD939DC5B732616EEC99)
Complete name : D:\Типа счастье Сезон 1 2015 HDTV720p BaibaKo\HAPPYish.s01e01.HDTV720p.Rus.Eng.BaibaKo.tv.mkv
Format : Matroska
Format version : Version 4 / Version 2
File size : 663 MiB
Duration : 30mn 13s
Overall bit rate : 3 069 Kbps
Encoded date : UTC 2015-04-27 10:43:58
Writing application : mkvmerge v7.8.0 ('River Man') 64bit built on Mar 27 2015 16:31:37
Writing library : libebml v1.3.1 + libmatroska v1.4.2
DURATION : 00:30:13.216000000
NUMBER_OF_FRAMES : 56663
NUMBER_OF_BYTES : 87034368
_STATISTICS_WRITING_APP : mkvmerge v7.8.0 ('River Man') 64bit built on Mar 27 2015 16:31:37
_STATISTICS_WRITING_DATE_UT : 2015-04-27 10:43:58
_STATISTICS_TAGS : BPS DURATION NUMBER_OF_FRAMES NUMBER_OF_BYTES
Video
ID : 1
Format : AVC
Format/Info : Advanced Video Codec
Format profile : [email protected]
Format settings, CABAC : Yes
Format settings, ReFrames : 5 frames
Codec ID : V_MPEG4/ISO/AVC
Duration : 30mn 13s
Bit rate : 2 248 Kbps
Width : 1 280 pixels
Height : 720 pixels
Display aspect ratio : 16:9
Frame rate mode : Constant
Frame rate : 23.976 fps
Color space : YUV
Chroma subsampling : 4:2:0
Bit depth : 8 bits
Scan type : Progressive
Bits/(Pixel*Frame) : 0.102
Stream size : 484 MiB (73%)
Writing library : x264 core 142 r2479 dd79a61
Encoding settings : cabac=1 / ref=5 / deblock=1:0:0 / analyse=0x3:0x113 / me=umh / subme=8 / psy=1 / psy_rd=1.00:0.00 / mixed_ref=1 / me_range=16 / chroma_me=1 / trellis=1 / 8x8dct=1 / cqm=0 / deadzone=21,11 / fast_pskip=1 / chroma_qp_offset=-2 / threads=12 / lookahead_threads=2 / sliced_threads=0 / nr=0 / decimate=1 / interlaced=0 / bluray_compat=0 / constrained_intra=0 / bframes=3 / b_pyramid=2 / b_adapt=2 / b_bias=0 / direct=3 / weightb=1 / open_gop=0 / weightp=2 / keyint=240 / keyint_min=24 / scenecut=40 / intra_refresh=0 / rc_lookahead=50 / rc=2pass / mbtree=1 / bitrate=2248 / ratetol=1.0 / qcomp=0.60 / qpmin=0 / qpmax=69 / qpstep=4 / cplxblur=20.0 / qblur=0.5 / vbv_maxrate=62500 / vbv_bufsize=78125 / nal_hrd=none / filler=0 / ip_ratio=1.40 / aq=1:1.00
Default : No
Forced : No
Color range : Limited
Color primaries : BT.709
Transfer characteristics : BT.709
Matrix coefficients : BT.709
Audio #1
ID : 2
Format : AC-3
Format/Info : Audio Coding 3
Mode extension : CM (complete main)
Format settings, Endianness : Big
Codec ID : A_AC3
Duration : 30mn 13s
Bit rate mode : Constant
Bit rate : 384 Kbps
Channel(s) : 6 channels
Channel positions : Front: L C R, Side: L R, LFE
Sampling rate : 48.0 KHz
Compression mode : Lossy
Stream size : 83.0 MiB (13%)
Language : Russian
Default : Yes
Forced : No
Audio #2
ID : 3
Format : AC-3
Format/Info : Audio Coding 3
Mode extension : CM (complete main)
Format settings, Endianness : Big
Codec ID : A_AC3
Duration : 30mn 13s
Bit rate mode : Constant
Bit rate : 384 Kbps
Channel(s) : 6 channels
Channel positions : Front: L C R, Side: L R, LFE
Sampling rate : 48.0 KHz
Compression mode : Lossy
Stream size : 83.0 MiB (13%)
Language : English
Default : No
Forced : No
-Скриншоты:---Добавлена 10 серия первого сезона- -
Download / Скачать

Хотите скачать бесплатно? Зарегистрируйтесь на сайте (ссылка на регистрацию). Pirat.ca - самый быстрый торрент трекер в рунете!

Как скачивать  ·   Что такое торрент  ·   Рейтинг и ограничения



Последний раз редактировалось: LPPI (2015-08-27 20:01), всего редактировалось 7 раз(а)

LPPI ®

137550

Пост 04-Май-2015 21:44 (спустя 7 дней)

[Q] 

Добавлена 2 серия первого сезона
[Профиль]  [ЛС] 

LPPI ®

137550

Пост 13-Май-2015 13:22 (спустя 8 дней)

[Q] 

Добавлена 3 серия первого сезона
[Профиль]  [ЛС] 

LPPI ®

137550

Пост 19-Май-2015 12:05 (спустя 5 дней)

[Q] 

Добавлена 4 серия первого сезона
[Профиль]  [ЛС] 

LPPI ®

137550

Пост 01-Июн-2015 17:47 (спустя 13 дней)

[Q] 

Добавлена 5 и 6 серия первого сезона
[Профиль]  [ЛС] 

spidercola86

3254

Пост 02-Июн-2015 09:34 (спустя 15 часов)

[Q] 

Это типа сериал на фильм "Ищу друга на конец света" http://www.kinopoisk.ru/film/464573/
[Профиль]  [ЛС] 

LPPI ®

137550

Пост 18-Июл-2015 10:03 (спустя 1 месяц 16 дней)

[Q] 

Добавлена 7 серия первого сезона
[Профиль]  [ЛС] 

LPPI ®

137550

Пост 27-Июл-2015 22:12 (спустя 9 дней)

[Q] 

Добавлена 8 серия первого сезона
[Профиль]  [ЛС] 

LPPI ®

137550

Пост 20-Авг-2015 21:02 (спустя 23 дня)

[Q] 

Добавлена 9 серия первого сезона
[Профиль]  [ЛС] 

LPPI ®

137550

Пост 27-Авг-2015 20:01 (спустя 6 дней)

[Q] 

Добавлена 10 серия первого сезона
[Профиль]  [ЛС] 

raul kurochka

Корсар

Пост 08-Янв-2016 05:46 (спустя 4 месяца 11 дней)

[Q] 

Спасибо, заценим!
Лови бочку

_________________
...ЧО ТАКОЙ СЕРЬЕЗНЫЙ???
[Профиль]  [ЛС] 
Показать сообщения:    
Ответить на тему

Текущее время: Сегодня 10:06

Часовой пояс: GMT + 4



Вы не можете начинать темы
Вы не можете отвечать на сообщения
Вы не можете редактировать свои сообщения
Вы не можете удалять свои сообщения
Вы не можете голосовать в опросах
Вы не можете прикреплять файлы к сообщениям
Вы не можете скачивать файлы

▼ Вниз