ML
     
  Уважаемый Гость!
Вы можете поддержать проект и зарегистрироваться у наших партнеров - онлайн-стратегия MyLands. При регистрации в игре Вы получите код, который сможете активировать после регистрации на pirat.ca и получить 1000 дублонов.

Ваш код:
4fbd9898b6f10799a3e8edf60f31febd2bc15453
 
     

Мистер Селфридж / Mr. Selfridge / Сезон: 3 / Серии: 1-10 из 10 (Роб Эванс / Rob Evans, ...) [2015 г., драма, WEB-DLRip] MVO (BaibaKo) + Original (Eng)

Ответить на тему
 
Автор
Сообщение

Пост 04-Май-2015 21:16

[Q] 

LPPI

-Мистер Селфридж / Mr. Selfridge- Производство: Великобритания
Жанр: драма
Год выпуска: 2015 г.-Озвучка:
Перевод: Профессиональный (многоголосый, закадровый)
Оригинальный аудиопоток: английский-Сезон: 3
Серии: 1-10 из 10 серий
Продолжительность: ~ 00:45:00 мин серия-Режиссер: Роб Эванс / Rob Evans, Лоуренс Тилль / Lawrence Till, Энтони Бирн / Anthony Byrne
В ролях: Джереми Пивен, Фрэнсис О'Коннор, Айслинг Лофтус, Том Гудман-Хилл, Аманда Аббингтон, Кэтрин Келли, Рон Кук, Зои Таппер и др.-Описание: В центре внимания амбициозного проекта — американский предприниматель, Г. Г. Селфридж, в 1906 году, во время своего первого визита в Лондон, утвердившийся во мнении, что Англия испытывает дефицит толковых торговых центров, и открывший своё первое подобное заведение в 1909-м. Мы увидим взлёт и падение бизнесмена-революционера, растянувшиеся на три десятилетия, с 1909 по 1939.- -Качество видео: WEB-DLRip
Контейнер: AVI
Видео кодек: XviD
Аудио кодек: MP3
Видео: 720x400 (1.80:1), 25 fps, XviD build 50 ~1503 kbps avg, 0.21 bit/pixel
Аудио: Russian: 48 kHz, MPEG Layer 3, 2 ch, ~192.00 kbps avg
Аудио #2: English: 48 kHz, MPEG Layer 3, 2 ch, ~192.00 kbps avg
Cубтитры: отсутствуют-
General
Complete name : F:\Mr.Selfridge.s03.WEB-DLRip.XviD.Rus.Eng.BaibaKo.tv\Mr.Selfridge.s03e01.WEB-DLRip.XviD.Rus.Eng.BaibaKo.tv.avi
Format : AVI
Format/Info : Audio Video Interleave
File size : 608 MiB
Duration : 44mn 38s
Overall bit rate : 1 903 Kbps
Writing application : VirtualDubMod 1.5.10.2 (build 2540/release)
Writing library : VirtualDubMod build 2540/release
Video
ID : 0
Format : MPEG-4 Visual
Format profile : Advanced [email protected]
Format settings, BVOP : 2
Format settings, QPel : No
Format settings, GMC : No warppoints
Format settings, Matrix : Default (H.263)
Codec ID : XVID
Codec ID/Hint : XviD
Duration : 44mn 38s
Bit rate : 1 504 Kbps
Width : 720 pixels
Height : 400 pixels
Display aspect ratio : 16:9
Frame rate : 25.000 fps
Color space : YUV
Chroma subsampling : 4:2:0
Bit depth : 8 bits
Scan type : Progressive
Compression mode : Lossy
Bits/(Pixel*Frame) : 0.209
Stream size : 480 MiB (79%)
Writing library : XviD 1.2.1 (UTC 2008-12-04)
Audio #1
ID : 1
Format : MPEG Audio
Format version : Version 1
Format profile : Layer 3
Mode : Joint stereo
Codec ID : 55
Codec ID/Hint : MP3
Duration : 44mn 38s
Bit rate mode : Constant
Bit rate : 192 Kbps
Channel(s) : 2 channels
Sampling rate : 48.0 KHz
Compression mode : Lossy
Stream size : 61.3 MiB (10%)
Alignment : Aligned on interleaves
Interleave, duration : 40 ms (1.00 video frame)
Interleave, preload duratio : 504 ms
Audio #2
ID : 2
Format : MPEG Audio
Format version : Version 1
Format profile : Layer 3
Mode : Joint stereo
Codec ID : 55
Codec ID/Hint : MP3
Duration : 44mn 38s
Bit rate mode : Constant
Bit rate : 192 Kbps
Channel(s) : 2 channels
Sampling rate : 48.0 KHz
Compression mode : Lossy
Stream size : 61.3 MiB (10%)
Alignment : Aligned on interleaves
Interleave, duration : 40 ms (1.00 video frame)
Interleave, preload duratio : 504 ms
Writing library : LAME3.98.4
-Скриншоты:--
Download / Скачать

Хотите скачать бесплатно? Зарегистрируйтесь на сайте (ссылка на регистрацию). Pirat.ca - самый быстрый торрент трекер в рунете!

Как скачивать  ·   Что такое торрент  ·   Рейтинг и ограничения

Показать сообщения:    
Ответить на тему

Текущее время: Сегодня 19:59

Часовой пояс: GMT + 4



Вы не можете начинать темы
Вы не можете отвечать на сообщения
Вы не можете редактировать свои сообщения
Вы не можете удалять свои сообщения
Вы не можете голосовать в опросах
Вы не можете прикреплять файлы к сообщениям
Вы не можете скачивать файлы

▼ Вниз