ML
     
  Уважаемый Гость!
Вы можете поддержать проект и зарегистрироваться у наших партнеров - онлайн-стратегия MyLands. При регистрации в игре Вы получите код, который сможете активировать после регистрации на pirat.ca и получить 1000 дублонов.

Ваш код:
cc3be08b7507661c03e0a2f582d0da3a659ea55a
 
     

Галлиполи / Gallipoli / Сезон: 1 / Серии: 1-7 из 7 (Глендин Айвин / Glendyn Ivin) [2015 г., военный, BDRip] MVO (BaibaKo) + Original (Eng) [Полный]

Ответить на тему
 
Автор
Сообщение

Пост 04-Май-2015 23:39

[Q] 

LPPI

-Галлиполи / Gallipoli- Производство: Австралия, Nine Network Australia
Жанр: военный
Год выпуска: 2015 г.-Озвучка:
Перевод: Профессиональный (многоголосый, закадровый)
Оригинальный аудиопоток: английский-Сезон: 1
Серии: 7 из 7 серий
Продолжительность: ~ 00:45:00 мин серия-Режиссер: Глендин Айвин / Glendyn Ivin
В ролях: Коди Смит-МакФи, Гарри Гринвуд, Сэм Парсонсон, Том Бадж, Джеймс Кэллис, Джон Бах, Николас Хоуп, Энтони Хэйес, Мэтью Нэйбл, Леон Форд и др.-Описание: Рассвет 25 апреля 1915 года. Высадка войск на пляжи полуострова Галлиполи. Толли, Беван и их товарищи в следующие восемь месяцев пройдут жестокую школу уроков выживания. История о четверых молодых австралийских юношах, вступивших в армию, которых отправили в Галлиполи.- -Качество видео: BDRip
Контейнер: AVI
Видео кодек: XviD
Аудио кодек: MP3
Видео: 720x400 (1.80:1), 25 fps, XviD build 50 ~1517 kbps avg, 0.21 bit/pixel
Аудио: Russian: 48 kHz, MPEG Layer 3, 2 ch, ~192.00 kbps avg
Аудио #2: English: 48 kHz, MPEG Layer 3, 2 ch, ~192.00 kbps avg
Cубтитры: отсутствуют-
1. Первый день
2. Мой друг - мой враг
3. A Man Alone
4. Глубокий шрам
5. The Breakout
6. Если только...
7. The Earth Abides
General
Complete name : D:\Галлиполи 2015 BDRip BaibaKo\Gallipoli.s01e01.BDRip.XviD.Rus.Eng.BaibaKo.tv.avi
Format : AVI
Format/Info : Audio Video Interleave
File size : 1.03 GiB
Duration : 1h 17mn
Overall bit rate : 1 917 Kbps
Writing application : VirtualDubMod 1.5.10.2 (build 2540/release)
Writing library : VirtualDubMod build 2540/release
Video
ID : 0
Format : MPEG-4 Visual
Format profile : Advanced [email protected]
Format settings, BVOP : 2
Format settings, QPel : No
Format settings, GMC : No warppoints
Format settings, Matrix : Default (H.263)
Codec ID : XVID
Codec ID/Hint : XviD
Duration : 1h 17mn
Bit rate : 1 519 Kbps
Width : 720 pixels
Height : 400 pixels
Display aspect ratio : 16:9
Frame rate : 25.000 fps
Color space : YUV
Chroma subsampling : 4:2:0
Bit depth : 8 bits
Scan type : Progressive
Compression mode : Lossy
Bits/(Pixel*Frame) : 0.211
Stream size : 838 MiB (79%)
Writing library : XviD 1.2.1 (UTC 2008-12-04)
Audio #1
ID : 1
Format : MPEG Audio
Format version : Version 1
Format profile : Layer 3
Mode : Joint stereo
Mode extension : MS Stereo
Codec ID : 55
Codec ID/Hint : MP3
Duration : 1h 17mn
Bit rate mode : Constant
Bit rate : 192 Kbps
Channel(s) : 2 channels
Sampling rate : 48.0 KHz
Compression mode : Lossy
Stream size : 106 MiB (10%)
Alignment : Aligned on interleaves
Interleave, duration : 40 ms (1.00 video frame)
Interleave, preload duratio : 504 ms
Audio #2
ID : 2
Format : MPEG Audio
Format version : Version 1
Format profile : Layer 3
Mode : Joint stereo
Mode extension : MS Stereo
Codec ID : 55
Codec ID/Hint : MP3
Duration : 1h 17mn
Bit rate mode : Constant
Bit rate : 192 Kbps
Channel(s) : 2 channels
Sampling rate : 48.0 KHz
Compression mode : Lossy
Stream size : 106 MiB (10%)
Alignment : Aligned on interleaves
Interleave, duration : 40 ms (1.00 video frame)
Interleave, preload duratio : 504 ms
-Скриншоты:--Добавлена 6 и 7 серия первого сезона (Финал)- -
Download / Скачать

Хотите скачать бесплатно? Зарегистрируйтесь на сайте (ссылка на регистрацию). Pirat.ca - самый быстрый торрент трекер в рунете!

Как скачивать  ·   Что такое торрент  ·   Рейтинг и ограничения



Последний раз редактировалось: LPPI (2015-06-01 20:38), всего редактировалось 2 раз(а)

LPPI ®

137546

Пост 10-Май-2015 17:18 (спустя 5 дней)

[Q] 

Добавлены 1-4 серии первого сезона. Раздача обновлена до качества видео BDRip. Перекачайте раздачу.
[Профиль]  [ЛС] 

LPPI ®

137546

Пост 31-Май-2015 12:27 (спустя 20 дней)

[Q] 

Добавлена 5 серия первого сезона
[Профиль]  [ЛС] 

LPPI ®

137546

Пост 01-Июн-2015 20:39 (спустя 1 день 8 часов)

[Q] 

Добавлена 6 и 7 серия первого сезона (Финал)
[Профиль]  [ЛС] 

spidercola86

3254

Пост 02-Июн-2015 09:46 (спустя 13 часов)

[Q] 

Рейтинг у фильма неплохой. Я задам свой уже всем надоевший вопрос "в 1080р будет?"(просто другое я не качаю (зачем качать если все ровно потом придется перекачивать для подшивки))
[Профиль]  [ЛС] 

Пост 11-Июн-2015 18:03 (спустя 9 дней)

Топик был перенесен из форума Сериалы в эфире в форум Зарубежные сериалы
Андря
 
Показать сообщения:    
Ответить на тему

Текущее время: Сегодня 05:09

Часовой пояс: GMT + 4



Вы не можете начинать темы
Вы не можете отвечать на сообщения
Вы не можете редактировать свои сообщения
Вы не можете удалять свои сообщения
Вы не можете голосовать в опросах
Вы не можете прикреплять файлы к сообщениям
Вы не можете скачивать файлы

▼ Вниз