ML
     
  Уважаемый Гость!
Вы можете поддержать проект и зарегистрироваться у наших партнеров - онлайн-стратегия MyLands. При регистрации в игре Вы получите код, который сможете активировать после регистрации на pirat.ca и получить 1000 дублонов.

Ваш код:
cc3be08b7507661c03e0a2f582d0da3a659ea55a
 
     

Наша эра: Продолжение Библии / A.D.: The Bible Continues / Сезон: 1 / Серии: 1-12 из 12 (Киаран Доннелли / Ciaran Donnelly, ...) [2015 г., драма, WEB-DL, 720p] MVO (BaibaKo) + Original (Eng) [Полный]

Ответить на тему
 
Автор
Сообщение

Пост 10-Май-2015 18:13

[Q] 

LPPI

-Наша эра: Продолжение Библии / A.D.: The Bible Continues- Производство: США, United Artists Media Group (UAMG), LightWorkers Media
Жанр: драма
Год выпуска: 2015 г.-Озвучка:
Перевод: Профессиональный (многоголосый, закадровый)
Оригинальный аудиопоток: английский-Сезон: 1
Серии: 12 из 12 серий
Продолжительность: ~ 00:43:00 мин серия-Режиссер: Киаран Доннелли / Ciaran Donnelly, Тони Митчелл / Tony Mitchell, Роб Эванс / Rob Evans
В ролях: Хуан Пабло Ди Паке, Фрайзер Эйрс, Джеймс Кэллис, Винсент Риган, Кевин Дойл, Эндрю Гауэр, Фарзана Дуа Элахе, Джордж Джорджиу и др.-Описание: Сериал начнет свое повествование с того момента, где закончился сериал «Библия», с распятия Христа.- -Качество видео: WEB-DL
Контейнер: MKV
Стандарт разрешения: 720p
Видео кодек: MPEG4 AVC
Аудио кодек: AC3
Видео: 1280x718 (16:9), 23.976 fps, ~3 953 Kbps, 0.179 bit/pix
Аудио: Russian: AC3, 384 kbps, 6 ch, 48 kHz
Аудио #2: English: AC3, 384 kbps, 6 ch, 48 kHz
Cубтитры: отсутствуют-
1. Гробница открыта
2. Тело пропало
3. Дух оживает
4. Гнев
5. Первый мучник
6. Преследование
7. Визит
8. Дорога в Дамаск
9. Вернуться Саула
10. Братья по оружию
11. Поднимайся
12. Мерзость
General
Unique ID : 254223517881573019198696698022262922014 (0xBF41AB271CC9278F9D74FAF0F6EADB1E)
Complete name : D:\Наша эра 2015 BaibaKo HD720p\A.D.The.Bible.Continues.s01e01.HD720p.WEB-DL.Rus.Eng.BaibaKo.tv.mkv
Format : Matroska
Format version : Version 4 / Version 2
File size : 1.46 GiB
Duration : 43mn 36s
Overall bit rate : 4 809 Kbps
Encoded date : UTC 2015-04-06 20:06:13
Writing application : mkvmerge v7.8.0 ('River Man') 64bit built on Mar 27 2015 16:31:37
Writing library : libebml v1.3.1 + libmatroska v1.4.2
DURATION : 00:43:36.224000000
NUMBER_OF_FRAMES : 81757
NUMBER_OF_BYTES : 125578752
_STATISTICS_WRITING_APP : mkvmerge v7.8.0 ('River Man') 64bit built on Mar 27 2015 16:31:37
_STATISTICS_WRITING_DATE_UT : 2015-04-06 20:06:13
_STATISTICS_TAGS : BPS DURATION NUMBER_OF_FRAMES NUMBER_OF_BYTES
Video
ID : 1
Format : AVC
Format/Info : Advanced Video Codec
Format profile : [email protected]
Format settings, CABAC : No
Format settings, ReFrames : 2 frames
Codec ID : V_MPEG4/ISO/AVC
Duration : 43mn 36s
Bit rate : 3 953 Kbps
Width : 1 280 pixels
Height : 718 pixels
Display aspect ratio : 16:9
Frame rate mode : Constant
Frame rate : 23.976 fps
Color space : YUV
Chroma subsampling : 4:2:0
Bit depth : 8 bits
Scan type : Progressive
Bits/(Pixel*Frame) : 0.179
Stream size : 1.20 GiB (82%)
Writing library : x264 core 142 r2479 dd79a61
Encoding settings : cabac=1 / ref=5 / deblock=1:-1:-1 / analyse=0x3:0x113 / me=umh / subme=8 / psy=1 / psy_rd=1.00:0.15 / mixed_ref=1 / me_range=16 / chroma_me=1 / trellis=1 / 8x8dct=1 / cqm=0 / deadzone=21,11 / fast_pskip=1 / chroma_qp_offset=-3 / threads=12 / lookahead_threads=2 / sliced_threads=0 / nr=0 / decimate=1 / interlaced=0 / bluray_compat=0 / constrained_intra=0 / bframes=3 / b_pyramid=2 / b_adapt=2 / b_bias=0 / direct=3 / weightb=1 / open_gop=0 / weightp=2 / keyint=240 / keyint_min=24 / scenecut=40 / intra_refresh=0 / rc_lookahead=50 / rc=2pass / mbtree=1 / bitrate=3953 / ratetol=1.0 / qcomp=0.60 / qpmin=0 / qpmax=69 / qpstep=4 / cplxblur=20.0 / qblur=0.5 / vbv_maxrate=17500 / vbv_bufsize=17500 / nal_hrd=none / filler=0 / ip_ratio=1.40 / aq=1:1.00
Language : English
Default : No
Forced : No
Color range : Limited
Color primaries : BT.709
Transfer characteristics : BT.709
Matrix coefficients : BT.709
Audio #1
ID : 2
Format : AC-3
Format/Info : Audio Coding 3
Mode extension : CM (complete main)
Format settings, Endianness : Big
Codec ID : A_AC3
Duration : 43mn 36s
Bit rate mode : Constant
Bit rate : 384 Kbps
Channel(s) : 6 channels
Channel positions : Front: L C R, Side: L R, LFE
Sampling rate : 48.0 KHz
Compression mode : Lossy
Stream size : 120 MiB (8%)
Title : Rus BaibaKo.tv DD5.1
Language : Russian
Default : Yes
Forced : No
Audio #2
ID : 3
Format : AC-3
Format/Info : Audio Coding 3
Mode extension : CM (complete main)
Format settings, Endianness : Big
Codec ID : A_AC3
Duration : 43mn 36s
Bit rate mode : Constant
Bit rate : 384 Kbps
Channel(s) : 6 channels
Channel positions : Front: L C R, Side: L R, LFE
Sampling rate : 48.0 KHz
Compression mode : Lossy
Stream size : 120 MiB (8%)
Title : Original DD5.1
Language : English
Default : No
Forced : No
-Скриншоты:---Добавлена 10, 11 и 12 серия первого сезона- -
Download / Скачать

Хотите скачать бесплатно? Зарегистрируйтесь на сайте (ссылка на регистрацию). Pirat.ca - самый быстрый торрент трекер в рунете!

Как скачивать  ·   Что такое торрент  ·   Рейтинг и ограничения



Последний раз редактировалось: LPPI (2015-09-06 10:43), всего редактировалось 6 раз(а)

ZektraPlay

Шкипер

Пост 11-Май-2015 01:30 (спустя 7 часов)

[Q] 

Спасибо! Да Благословит Вас господь!
[Профиль]  [ЛС] 

LPPI ®

137546

Пост 19-Июн-2015 13:19 (спустя 1 месяц 8 дней)

[Q] 

Добавлена 3 и 4 серия первого сезона
[Профиль]  [ЛС] 

LPPI ®

137546

Пост 20-Июн-2015 21:22 (спустя 1 день 8 часов)

[Q] 

Добавлена 5 серия первого сезона
[Профиль]  [ЛС] 

KoNiaL_KCC

Гроза морей

Пост 01-Июл-2015 22:49 (спустя 11 дней)

[Q] 

LPPI, Добрый вечер. Судя по графику выхода серий 21.06.2015 вышла последняя 12 серия, хотелось бы знать когда будут выкладывать остальные серии. за раздачу Раздающему респект! . Мне сериал очень понравился не смотря на встроенною рекламу казино Ой как стыдно-то... . Спасибо
[Профиль]  [ЛС] 

LPPI ®

137546

Пост 01-Июл-2015 22:58 (спустя 8 минут)

[Q] 

689114LPPI, Добрый вечер. Судя по графику выхода серий 21.06.2015 вышла последняя 12 серия, хотелось бы знать когда будут выкладывать остальные серии. за раздачу Раздающему респект! . Мне сериал очень понравился не смотря на встроенною рекламу казино Ой как стыдно-то... . Спасибо
От меня тут мало зависит. Выкладываю как только переведут.
[Профиль]  [ЛС] 

KoNiaL_KCC

Гроза морей

Пост 01-Июл-2015 23:01 (спустя 3 минуты)

[Q] 

Спасибо!!! жду с нетерпением
[Профиль]  [ЛС] 

LPPI ®

137546

Пост 19-Июл-2015 20:45 (спустя 17 дней)

[Q] 

Добавлена 6 серия первого сезона
[Профиль]  [ЛС] 

h5n1

Гроза морей

483

Пост 21-Июл-2015 15:05 (спустя 1 день 18 часов)

[Q] 

спасибо!!! Лови бочку

_________________
«Мы находимся здесь, чтобы внести свой вклад в этот мир. Иначе зачем мы здесь?» S.Jobs
[Профиль]  [ЛС] 

KoNiaL_KCC

Гроза морей

Пост 30-Июл-2015 19:27 (спустя 9 дней)

[Q] 

спасибо. жду с нетерпением 7 серию
[Профиль]  [ЛС] 

blackmag

Шкипер

Пост 17-Авг-2015 22:42 (спустя 18 дней)

[Q] 

почему так долго 7 серии нет?
[Профиль]  [ЛС] 

LPPI ®

137546

Пост 28-Авг-2015 22:13 (спустя 10 дней)

[Q] 

Добавлена 7 и 8 серия первого сезона
[Профиль]  [ЛС] 

LPPI ®

137546

Пост 04-Сен-2015 09:29 (спустя 6 дней)

[Q] 

Добавлена 9 серия первого сезона
[Профиль]  [ЛС] 

blackmag

Шкипер

Пост 05-Сен-2015 18:35 (спустя 1 день 9 часов)

[Q] 

не грузи что-о
[Профиль]  [ЛС] 

LPPI ®

137546

Пост 06-Сен-2015 10:43 (спустя 16 часов)

[Q] 

Добавлена 10, 11 и 12 серия первого сезона
[Профиль]  [ЛС] 

Пост 06-Сен-2015 13:10 (спустя 2 часа 26 минут)

Топик был перенесен из форума Сериалы в эфире в форум Зарубежные сериалы
kugesan
 

nikols73

Штурман

Пост 06-Сен-2015 22:37 (спустя 11 часов)

[Q] 

Дайте раздачу !!!
[Профиль]  [ЛС] 

KoNiaL_KCC

Гроза морей

Пост 11-Ноя-2015 22:46 (спустя 2 месяца 5 дней)

[Q] 

LPPI, вернитесь на раздачу мне перехешировать надо для раздачи
[Профиль]  [ЛС] 

KoNiaL_KCC

Гроза морей

Пост 14-Ноя-2015 17:24 (спустя 2 дня 18 часов)

[Q] 

спасибо перехешировал. стою на раздаче, график раздачи внизу
[Профиль]  [ЛС] 

KoNiaL_KCC

Гроза морей

Пост 17-Ноя-2015 00:55 (спустя 2 дня 7 часов)

[Q] 

раздаю 17 и 18.11.15 с 12часов до 24. далее пишите в лс
[Профиль]  [ЛС] 

KoNiaL_KCC

Гроза морей

Пост 22-Ноя-2015 19:14 (спустя 5 дней)

[Q] 

Сериал в целом очень интересен даже тем кто не читал библии. Очень реалистично показан интерьер, одежда, дома. Хотя как обычно не без ляпов, очень странно видеть в роли рыжеволосой красавицы Марии-Магдалины негритянскую актрису. Так же апостол Иоанн никак не может быть негром, он вроде был блондин. В целом фильм очень понравился, сюжет интересен, смотреть стоит даже для общего развития и не обращать внимания на ляпы. Конечно реклама все портит ((((( игровые автоматы...и Бог - как это сочетается? Хотя мне при просмотре не сильно мешала. Для просмотра советую, а далее Вам решать посмотреть второй раз или нет.
[Профиль]  [ЛС] 

янка-сан

Гроза морей

Пост 18-Дек-2015 19:38 (спустя 26 дней)

[Q] 

спасибо Лови бочку
[Профиль]  [ЛС] 

KoNiaL_KCC

Гроза морей

Пост 24-Дек-2015 21:33 (спустя 6 дней)

[Q] 

господа скачавшие сериал, не забывайте оставлять свои отзывы о сериале aa
[Профиль]  [ЛС] 

ZektraPlay

Шкипер

Пост 09-Янв-2016 19:00 (спустя 15 дней)

[Q] 

Потрясающий сериал. Да Благословит Бог организовавших его съемки и просмотр.
Спасибо раздающим. К просмотру рекомендую. Религии минимум. Сериал о вере в Иисуса! Акуратне, не противоречив, позволяет больше окунуться и понять действия происходившие в период деяний Святых Апостолов, больше понять Духа святого, сходящий огонь, крещение водное, крещение святым духом, говорение на иных и другие таинства и Божьи чудеса.
Спасибо!
[Профиль]  [ЛС] 

KoNiaL_KCC

Гроза морей

Пост 09-Фев-2016 22:55 (спустя 1 месяц)

[Q] 

ZektraPlay, спасибо за отзыв. хотелось бы иногда релизера в раздаче видеть )) странно 21 отдача и всего 3 отзыва, это значит всем остальным так не понравилось cx
[Профиль]  [ЛС] 

KoNiaL_KCC

Гроза морей

Пост 01-Май-2016 20:40 (спустя 2 месяца 21 день)

[Q] 

моя раздача ведется по графику 2х2. Уточнить можно в ЛС
[Профиль]  [ЛС] 
Показать сообщения:    
Ответить на тему

Текущее время: Сегодня 05:08

Часовой пояс: GMT + 4



Вы не можете начинать темы
Вы не можете отвечать на сообщения
Вы не можете редактировать свои сообщения
Вы не можете удалять свои сообщения
Вы не можете голосовать в опросах
Вы не можете прикреплять файлы к сообщениям
Вы не можете скачивать файлы

▼ Вниз