ML
     
  Уважаемый Гость!
Вы можете поддержать проект и зарегистрироваться у наших партнеров - онлайн-стратегия MyLands. При регистрации в игре Вы получите код, который сможете активировать после регистрации на pirat.ca и получить 1000 дублонов.

Ваш код:
47bfc18b89c74e4ae0d974e9b6943639e2bff08e
 
     

Восстание Техаса / Texas Rising / Сезон: 1 / Серии: 1-10 из 10 (Роланд Жоффе / Roland Joffé) [2015 г., драма, вестерн, WEB-DLRip] MVO (BaibaKo) + Original (Eng) [Полный]

Ответить на тему
 
Автор
Сообщение

Пост 27-Май-2015 12:33

[Q] 

LPPI

-Восстание Техаса / Texas Rising- Производство: США, A+E Studios, ITV Studios America, Thinkfactory Media
Жанр: драма, вестерн
Год выпуска: 2015 г.-Озвучка:
Перевод: Профессиональный (многоголосый, закадровый)
Оригинальный аудиопоток: английский-Сезон: 1
Серии: 10 из 10 серий
Продолжительность: ~ 00:45:00 мин серия-Режиссер: Роланд Жоффе / Roland Joffé
В ролях: Билл Пэкстон, Джеффри Дин Морган, Рэй Лиотта, Томас Джейн, Крис Кристофферсон, Майкл Рапапорт, Синтия Аддай-Робинсон, Брендан Фрейзер, Роберт Неппер, Джереми Дэвис, Риз Койро, Макс Тириот, Чад Майкл Мюррэй, Кристофер МакДональд и др.-Описание: Речь в сериале пойдет о знаменитой Техасской революции 1835 года, когда штат решил выйти из состава Мексики в результате чего случилась недолгая война за независимость. На фоне этих событий, зрители также узнают историю появления знаменитых техасских рейнджеров.- -Качество видео: WEB-DLRip
Контейнер: AVI
Видео кодек: XviD
Аудио кодек: MP3
Видео: 720x300 (2.40:1), 23.976 fps, XviD build 50 ~1517 kbps avg, 0.29 bit/pixel
Аудио: Russian: 48 kHz, MPEG Layer 3, 2 ch, ~192.00 kbps avg
Аудио #2: English: 48 kHz, MPEG Layer 3, 2 ch, ~192.00 kbps avg
Cубтитры: отсутствуют-
General
Complete name : D:\Восстание Техаса Сезон 1 2015 BaibaKo\Texas.Rising.s01e01.WEB-DLRip.XviD.Rus.Eng.BaibaKo.tv.avi
Format : AVI
Format/Info : Audio Video Interleave
File size : 625 MiB
Duration : 45mn 34s
Overall bit rate : 1 916 Kbps
Writing application : VirtualDubMod 1.5.10.2 (build 2540/release)
Writing library : VirtualDubMod build 2540/release
Video
ID : 0
Format : MPEG-4 Visual
Format profile : Advanced [email protected]
Format settings, BVOP : 2
Format settings, QPel : No
Format settings, GMC : No warppoints
Format settings, Matrix : Default (H.263)
Codec ID : XVID
Codec ID/Hint : XviD
Duration : 45mn 34s
Bit rate : 1 518 Kbps
Width : 720 pixels
Height : 300 pixels
Display aspect ratio : 2.40:1
Frame rate : 23.976 fps
Color space : YUV
Chroma subsampling : 4:2:0
Bit depth : 8 bits
Scan type : Progressive
Compression mode : Lossy
Bits/(Pixel*Frame) : 0.293
Stream size : 495 MiB (79%)
Writing library : XviD 1.2.1 (UTC 2008-12-04)
Audio #1
ID : 1
Format : MPEG Audio
Format version : Version 1
Format profile : Layer 3
Mode : Joint stereo
Mode extension : MS Stereo
Codec ID : 55
Codec ID/Hint : MP3
Duration : 45mn 34s
Bit rate mode : Constant
Bit rate : 192 Kbps
Channel(s) : 2 channels
Sampling rate : 48.0 KHz
Compression mode : Lossy
Stream size : 62.6 MiB (10%)
Alignment : Aligned on interleaves
Interleave, duration : 42 ms (1.00 video frame)
Interleave, preload duratio : 504 ms
Audio #2
ID : 2
Format : MPEG Audio
Format version : Version 1
Format profile : Layer 3
Mode : Joint stereo
Mode extension : MS Stereo
Codec ID : 55
Codec ID/Hint : MP3
Duration : 45mn 34s
Bit rate mode : Constant
Bit rate : 192 Kbps
Channel(s) : 2 channels
Sampling rate : 48.0 KHz
Compression mode : Lossy
Stream size : 62.6 MiB (10%)
Alignment : Aligned on interleaves
Interleave, duration : 42 ms (1.00 video frame)
Interleave, preload duratio : 504 ms
-Скриншоты:--
при каждом добавлении создётся новый торрент. Чтобы начать докачку новой серии, пользователям необходимо сделать следующее:
(1) остановить скачивание,
(2) удалить старый торрент у себя из клиента (старые серии удалять не надо),
(3) скачать новый торрент и запустить его у себя в клиенте, при этом указать клиенту путь в старую папку куда и должно происходить скачивание новых серий.
Ваш клиент при этом должен произвести хеширование (проверку) старой папки и будет докачивать только те серии которых у вас ещё нет. Старые серии при этом не удаляются, а продолжают раздаваться!
Eсли вы уже удалили старые серии, то предотвратить повторную закачку старых серий можно, отжав галочку в соответствующих местах при запуске нового торрента. (по возможности, желательно не удалять старые серии как можно дольше чтобы релизёр не столько продолжал раздавать старые серии, а смог сконцентрироваться на новых)
-Добавлена 10 серия первого сезона (Финал)- -
Download / Скачать

Хотите скачать бесплатно? Зарегистрируйтесь на сайте (ссылка на регистрацию). Pirat.ca - самый быстрый торрент трекер в рунете!

Как скачивать  ·   Что такое торрент  ·   Рейтинг и ограничения



Последний раз редактировалось: LPPI (2015-06-18 11:12), всего редактировалось 9 раз(а)

spidercola86

3254

Пост 27-Май-2015 17:22 (спустя 4 часа)

[Q] 

Спасибо!!! Автору респект!!!
[Профиль]  [ЛС] 

LPPI ®

137546

Пост 28-Май-2015 17:26 (спустя 1 день)

[Q] 

Добавлена 2 серия первого сезонаДобавлено спустя 2 часа 38 минут 54 секунды:Добавлена 3 серия первого сезона
[Профиль]  [ЛС] 

slaytar

Штурман

Пост 28-Май-2015 19:23 (спустя 1 час 57 минут)

[Q] 

Кто посмотрел? Отпишитесь
[Профиль]  [ЛС] 

LPPI ®

137546

Пост 29-Май-2015 16:38 (спустя 21 час)

[Q] 

Добавлена 4 серия первого сезона
[Профиль]  [ЛС] 

LPPI ®

137546

Пост 04-Июн-2015 23:02 (спустя 6 дней)

[Q] 

Добавлена 5, 6 серия первого сезона
[Профиль]  [ЛС] 

LPPI ®

137546

Пост 10-Июн-2015 11:40 (спустя 5 дней)

[Q] 

Добавлена 7 серия первого сезона
[Профиль]  [ЛС] 

LPPI ®

137546

Пост 11-Июн-2015 17:21 (спустя 1 день 5 часов)

[Q] 

Добавлена 8 серия первого сезона
[Профиль]  [ЛС] 

LPPI ®

137546

Пост 17-Июн-2015 20:48 (спустя 6 дней)

[Q] 

Добавлена 9 серия первого сезона
[Профиль]  [ЛС] 

LPPI ®

137546

Пост 18-Июн-2015 10:30 (спустя 13 часов)

[Q] 

Добавлена 10 серия первого сезона (Финал)
[Профиль]  [ЛС] 
Показать сообщения:    
Ответить на тему

Текущее время: Сегодня 07:02

Часовой пояс: GMT + 4



Вы не можете начинать темы
Вы не можете отвечать на сообщения
Вы не можете редактировать свои сообщения
Вы не можете удалять свои сообщения
Вы не можете голосовать в опросах
Вы не можете прикреплять файлы к сообщениям
Вы не можете скачивать файлы

▼ Вниз