ML
     
  Уважаемый Гость!
Вы можете поддержать проект и зарегистрироваться у наших партнеров - онлайн-стратегия MyLands. При регистрации в игре Вы получите код, который сможете активировать после регистрации на pirat.ca и получить 1000 дублонов.

Ваш код:
5f4e94775bc0501caff7b254e79328d304c817d9
 
     

Меня зовут Эрл / My Name Is Earl (Сезон: 1 / Серии: 1-24 из 24) [Грегори Томас Гарсиа / Gregory Thomas Garcia][DVDRip, Сит. комедия, семейный 2005 год] MVO (Перевод "MTV")

Ответить на тему
 
Автор
Сообщение

Пост 25-Янв-2012 15:18

[Q] 

Woitler

Корсар

Меня зовут Эрл / My Name Is Earl
(Сезон: 1 / Серии: 1-24 из 24)
Год выпуска: 2005
Мировая премьера: 20 сентября 2005
Российская премьера: 21 июня 2005 (Телеканал Ren-TV)
Дата выхода на DVD: 19 сентября 2006
Производство: США
Жанр: Ситуационная комедия, семейный
Продолжительность серии: 00:23:00
Перевод: Профессиональный (многоголосый, закадровый) [MTV]
Оригинальный аудиопоток: английский
Субтитры: отсутствуют
Режиссер: Грегори Томас Гарсиа / Gregory Thomas Garcia
В ролях:
Джейсон Ли / Jason Lee
Этан Сапли / Ethan Suplee
Джейми Пресли / Jaime Pressly
Надин Веласкес / Nadine Velazquez
Эдди Стиплз / Eddie Steeples
Описание:
Жизнь Эрла, мелкого проходимца районного масштаба, полна ошибок и неправильных решений. Сразу после выигрыша джек-пота ($100.000) в небольшой лотерее, его сбивает машина, и он теряет выигравший билет. В больнице на него снисходит озарение: все дело в карме и неприятности преследуют его потому, что он сам нескончаемый источник неприятностей для окружающих.
Герой решает круто изменить свою судьбу. Он хочет исправить все неправильное, что он сделал со времен своих причуд в начальной школе, когда изощренно измывался над одноклассниками и тащил все, что попадалось под руку. С этой целью он составляет подробный список своих разнокалиберных проказ и преисполняется решимости разыскать всех, кому он когда-либо сделал недоброе и компенсировать зло, чего бы это ни ему, ни когда-то от него потерпевшим ни стоило.
Общая информация о сериале:
[ IMDB ] и [ КиноПоиск ]
Качество: DVDRip
Формат: AVI
Видео кодек: XviD
Аудио кодек: MP3
Видео: 987 Kbps, 640x368 (16/9), 23.976 fps, Bits/(Pixel*Frame): 0.175
Аудио: 128 Kbps, 48.0 KHz, 2 ch - MTV Russia
Аудио #2: 128 Kbps, 48.0 KHz, 2 ch - English
«My name is Earl» — это не просто веселый комедийный сериал про жизнь бывшего матерого хулигана Эрла Хики и его не одаренного умом братца. После большого перечня преступлений, казалось бы, Эрла непременно, рано или поздно, должны были упечь в тюрьму на длиннющий срок. Что ж, негодяй и правда был наказан, но совсем иначе: его сбила машина. Но нет, худа без добра. После выздоровления Эрл стал совсем другим человеком. И денежный выигрыш в сто тысяч долларов к нему как ветром надуло. Теперь с помощью этих денег Эрл Хики должен был исправлять свою карму. Бывший негодяй составляет внушительный список со всеми своими плохими поступками для того, чтобы изменить свою судьбу и очиститься от темного прошлого.
Как я уже написал в начале «My name is Earl» — это не простая ветреная комедия про веселую жизнь деревенских обывателей. Это еще и поучительная история о бывшем преступнике, который решил встать на правильный путь, искупая свою вину хорошими делами. И под какой бы кипой юмора не скрывался сериал, из него можно извлечь много полезных заметок.
Стоит отдельно отметить неплохую игру главных актеров сериала (Джейсон Ли, Этан Сапли, Джейми Пресли, Эдди Стиплз). Каждый персонаж очень харизматичен и уникален. А вместе они создают очень живую и нескучную атмосферу фильма. И уже с первых серий довольно быстро привыкаешь к их образу и манерам. Задания в списке Эрла тоже блещут разнообразием. Поэтому каждая серия смотрится одинаково интересно и легко, и не засоряет голову никакими заморочками.
Для просмотра рекомендую абсолютно всем любителям юмора, неординарности и уникальности, которыми так изобилует это кино.
General
Complete name : C:\My.Name.Is.Earl.s01e23.rus.eng.dvdrip_filmgate.tv.avi
Format : AVI
Format/Info : Audio Video Interleave
File size : 193 MiB
Duration : 20mn 38s
Overall bit rate : 1 309 Kbps
Writing application : VirtualDubModRus 1.5.10.2 (build 2540/release)
Writing library : VirtualDubMod build 2540/release
Video
ID : 0
Format : MPEG-4 Visual
Format profile : Advanced [email protected]
Format settings, BVOP : Yes
Format settings, QPel : No
Format settings, GMC : No warppoints
Format settings, Matrix : Default (H.263)
Codec ID : XVID
Codec ID/Hint : XviD
Duration : 20mn 38s
Bit rate : 1 038 Kbps
Width : 640 pixels
Height : 368 pixels
Display aspect ratio : 16:9
Frame rate : 23.976 fps
Resolution : 8 bits
Colorimetry : 4:2:0
Scan type : Progressive
Bits/(Pixel*Frame) : 0.184
Stream size : 153 MiB (79%)
Writing library : XviD 1.1.0 (UTC 2005-11-22)
Audio #1
ID : 1
Format : MPEG Audio
Format version : Version 1
Format profile : Layer 3
Format_Settings_Mode : Joint stereo
Format_Settings_ModeExtension : MS Stereo
Codec ID : 55
Codec ID/Hint : MP3
Duration : 20mn 38s
Bit rate mode : Constant
Bit rate : 128 Kbps
Channel(s) : 2 channels
Sampling rate : 48.0 KHz
Stream size : 18.9 MiB (10%)
Alignment : Split accross interleaves
Interleave, duration : 42 ms (1.00 video frame)
Interleave, preload duration : 500 ms
Audio #2
ID : 2
Format : MPEG Audio
Format version : Version 1
Format profile : Layer 3
Format_Settings_Mode : Joint stereo
Format_Settings_ModeExtension : MS Stereo
Codec ID : 55
Codec ID/Hint : MP3
Duration : 20mn 38s
Bit rate mode : Constant
Bit rate : 128 Kbps
Channel(s) : 2 channels
Sampling rate : 48.0 KHz
Stream size : 18.9 MiB (10%)
Alignment : Split accross interleaves
Interleave, duration : 42 ms (1.00 video frame)
Interleave, preload duration : 500 ms
За материал для раздачи большое спасибо FairPlayer
В эту раздачу включены все 24 серии 1 сезона.
*23 и 24 серии идут в переводе NovaFiLM.TV & FarGate.ru
Список серий 1 сезона:
1. "Pilot"
2. "Quit Smoking"
3. "Randy's Touchdown"
4. "Faked His Own Death"
5. "Teacher Earl"
6. "Broke Joy's Fancy Figurine"
7. "Stole Beer from a Golfer"
8. "Joy's Wedding"
9. "Cost Dad the Election"
10. "White Lie Christmas"
11. "Barn Burner"
12. "O Karma, Where Art Thou?"
13. "Stole P's HD Cart"
14. "Monkeys in Space"
15. "Somethi ng to Live For"
16. "The Professor"
17. "Didn't Pay Taxes"
18. "Dad's Car"
19. "Y2K"
20. "Boogeym an"
21. "The Bounty Hunter"
22. "Stole a Badge"
23. "BB" - в переводе NovaFiLM.TV & FarGate.ru
24. "Number One" - в переводе NovaFiLM.TV & FarGate.ru
Тип раздачи: Круглосуточно (24/7)
*Раздача будет обновляться по мере необходимости.
Скачали? - Тыкаем "Спасибо" и встаём на раздачу!
Download / Скачать

Хотите скачать бесплатно? Зарегистрируйтесь на сайте (ссылка на регистрацию). Pirat.ca - самый быстрый торрент трекер в рунете!

Как скачивать  ·   Что такое торрент  ·   Рейтинг и ограничения



Последний раз редактировалось: Woitler (2012-01-28 14:15), всего редактировалось 5 раз(а)

Пост 26-Янв-2012 20:50 (спустя 1 день 5 часов)

Топик был перенесен из форума Сериалы в форум Зарубежные сериалы

C2H5OH
 

CHARLI2236

1089

Пост 25-Июл-2013 18:19 (спустя 1 год 6 месяцев)

[Q] 

8

_________________
[Профиль]  [ЛС] 

jila241

Лоцман

10

Пост 02-Апр-2014 21:47 (спустя 8 месяцев 8 дней)

[Q] 

а будут остольные сезоны
[Профиль]  [ЛС] 

and0575

Лоцман

Пост 22-Сен-2014 21:09 (спустя 5 месяцев 19 дней)

[Q] 

Сериал супер, рекомендую! Насчет остальных сезонов - сейчас разгребусь со своим слетевшим диском, попробую раздать!
[Профиль]  [ЛС] 
Показать сообщения:    
Ответить на тему

Текущее время: Сегодня 15:31

Часовой пояс: GMT + 4



Вы не можете начинать темы
Вы не можете отвечать на сообщения
Вы не можете редактировать свои сообщения
Вы не можете удалять свои сообщения
Вы не можете голосовать в опросах
Вы не можете прикреплять файлы к сообщениям
Вы не можете скачивать файлы

▼ Вниз