ML
     
  Уважаемый Гость!
Вы можете поддержать проект и зарегистрироваться у наших партнеров - онлайн-стратегия MyLands. При регистрации в игре Вы получите код, который сможете активировать после регистрации на pirat.ca и получить 1000 дублонов.

Ваш код:
c3360d664ceb84802c84b88ed062a5d134e2ba97
 
     

Пустая корона / The Hollow Crown / Сезон: 1 / Серии: 1-4 из 4 (Доминик Кук / Dominic Cooke, Ричард Эйр / Richard Eyre, Руперт Гулд / Rupert Goold) [2012 г., драма, история, BDRip] MVO (BaibaKo) + Original (Eng) [Полный]

Ответить на тему
 
Автор
Сообщение

Пост 31-Май-2015 13:38

[Q] 

LPPI

-Пустая корона / The Hollow Crown- Производство: Великобритания
Жанр: драма, история
Год выпуска: 2012 г.-Озвучка:
Перевод: Профессиональный (многоголосый, закадровый)
Оригинальный аудиопоток: английский-Сезон: 1
Серии: 4 из 4 серий
Продолжительность: ~ 02:00:00 мин серия-Режиссер: Доминик Кук / Dominic Cooke, Ричард Эйр / Richard Eyre, Руперт Гулд / Rupert Goold
В ролях: Бен Уишоу, Джеймс Пьюрфой, Рори Киннер, Дэвид Моррисси, Клеманс Поэзи, Джереми Айронс, Том Хиддлстон, Гарри Ллойд, Дэвид Суше, Джули Уолтерс, Саймор Рассел Бил, Алан Армстронг, Джо Армстронг, Дэвид Даусон, Мишель Докери, Джон Хёрт, Ричард Гриффитс и другие.-Описание: Экранизация исторических хроник Уильяма Шекспира от телекомпании ВВС: «Ричард II», две части «Генриха IV» и «Генрих V».
«Ричард II» охватывает события 1399—1400 гг.; в их центре — низложение короля Ричарда II и захват власти его двоюродным братом Генрихом Болингброком — основателем дома Ланкастеров Генрихом IV, а затем убийство пленного Ричарда.- -Качество видео: BDRip
Контейнер: AVI
Видео кодек: XviD
Аудио кодек: MP3
Видео: 720x400 (1.80:1), 25 fps, XviD build 50 ~1505 kbps avg, 0.21 bit/pixel
Аудио: Russian: 48 kHz, MPEG Layer 3, 2 ch, ~192.00 kbps avg
Аудио #2: English: 48 kHz, MPEG Layer 3, 2 ch, ~192.00 kbps avg
Cубтитры: отсутствуют-
1. Ричард II
2. Генрих IV ч.1
3. Генрих IV ч.2
4. Генрих V
General
Complete name : C:\Users\Ivan\Desktop\Пустая корона s01 2012 BDRip BaibaKo\The.Hollow.Crown.s01e01.BDRip.XviD.Rus.Eng.BaibaKo.tv.avi
Format : AVI
Format/Info : Audio Video Interleave
File size : 1.88 GiB
Duration : 2h 21mn
Overall bit rate : 1 905 Kbps
Writing application : VirtualDubMod 1.5.10.2 (build 2540/release)
Writing library : VirtualDubMod build 2540/release
Video
ID : 0
Format : MPEG-4 Visual
Format profile : Advanced [email protected]
Format settings, BVOP : 2
Format settings, QPel : No
Format settings, GMC : No warppoints
Format settings, Matrix : Default (H.263)
Codec ID : XVID
Codec ID/Hint : XviD
Duration : 2h 21mn
Bit rate : 1 506 Kbps
Width : 720 pixels
Height : 400 pixels
Display aspect ratio : 16:9
Frame rate : 25.000 fps
Color space : YUV
Chroma subsampling : 4:2:0
Bit depth : 8 bits
Scan type : Progressive
Compression mode : Lossy
Bits/(Pixel*Frame) : 0.209
Stream size : 1.49 GiB (79%)
Writing library : XviD 1.2.1 (UTC 2008-12-04)
Audio #1
ID : 1
Format : MPEG Audio
Format version : Version 1
Format profile : Layer 3
Mode : Joint stereo
Codec ID : 55
Codec ID/Hint : MP3
Duration : 2h 21mn
Bit rate mode : Constant
Bit rate : 192 Kbps
Channel(s) : 2 channels
Sampling rate : 48.0 KHz
Compression mode : Lossy
Stream size : 194 MiB (10%)
Alignment : Aligned on interleaves
Interleave, duration : 40 ms (1.00 video frame)
Interleave, preload duratio : 504 ms
Audio #2
ID : 2
Format : MPEG Audio
Format version : Version 1
Format profile : Layer 3
Mode : Joint stereo
Codec ID : 55
Codec ID/Hint : MP3
Duration : 2h 21mn
Bit rate mode : Constant
Bit rate : 192 Kbps
Channel(s) : 2 channels
Sampling rate : 48.0 KHz
Compression mode : Lossy
Stream size : 194 MiB (10%)
Alignment : Aligned on interleaves
Interleave, duration : 40 ms (1.00 video frame)
Interleave, preload duratio : 504 ms
-Скриншоты:--
при каждом добавлении создётся новый торрент. Чтобы начать докачку новой серии, пользователям необходимо сделать следующее:
(1) остановить скачивание,
(2) удалить старый торрент у себя из клиента (старые серии удалять не надо),
(3) скачать новый торрент и запустить его у себя в клиенте, при этом указать клиенту путь в старую папку куда и должно происходить скачивание новых серий.
Ваш клиент при этом должен произвести хеширование (проверку) старой папки и будет докачивать только те серии которых у вас ещё нет. Старые серии при этом не удаляются, а продолжают раздаваться!
Eсли вы уже удалили старые серии, то предотвратить повторную закачку старых серий можно, отжав галочку в соответствующих местах при запуске нового торрента. (по возможности, желательно не удалять старые серии как можно дольше чтобы релизёр не столько продолжал раздавать старые серии, а смог сконцентрироваться на новых)
-Добавлены 2, 3, 4 серии первого сезона (Финал)- -
Download / Скачать

Хотите скачать бесплатно? Зарегистрируйтесь на сайте (ссылка на регистрацию). Pirat.ca - самый быстрый торрент трекер в рунете!

Как скачивать  ·   Что такое торрент  ·   Рейтинг и ограничения

LPPI ®

137550

Пост 01-Июн-2015 22:35 (спустя 1 день 8 часов)

[Q] 

Добавлены 2, 3, 4 серии первого сезона (Финал)
[Профиль]  [ЛС] 

spidercola86

3254

Пост 02-Июн-2015 09:43 (спустя 11 часов)

[Q] 

Это еще один ремейк на "Игра престолов"??? или более стоящий фильм (который не пытается натянуть оценку и собрать побольше зрителей за счет "порнухи")
[Профиль]  [ЛС] 

jofrei53

Корсар

Пост 02-Июн-2015 09:50 (спустя 7 минут)

[Q] 

За релиз СПАСИБО! Посмотрим с интересом...Всё-таки Шекспир или о Шекспире... Спасибо!!! Автору респект!!!
[Профиль]  [ЛС] 

spidercola86

3254

Пост 02-Июн-2015 14:38 (спустя 4 часа)

[Q] 

683023За релиз СПАСИБО! Посмотрим с интересом...Всё-таки Шекспир или о Шекспире... Спасибо!!! Автору респект!!!
Самый лучший фильм о Шекспире это Аноним http://www.kinopoisk.ru/film/484457/
[Профиль]  [ЛС] 

Пост 20-Дек-2015 20:55 (спустя 6 месяцев 18 дней)

Топик был перенесен из форума Сериалы в эфире в форум Зарубежные сериалы
erchine
 
Показать сообщения:    
Ответить на тему

Текущее время: Сегодня 10:04

Часовой пояс: GMT + 4



Вы не можете начинать темы
Вы не можете отвечать на сообщения
Вы не можете редактировать свои сообщения
Вы не можете удалять свои сообщения
Вы не можете голосовать в опросах
Вы не можете прикреплять файлы к сообщениям
Вы не можете скачивать файлы

▼ Вниз