ML
     
  Уважаемый Гость!
Вы можете поддержать проект и зарегистрироваться у наших партнеров - онлайн-стратегия MyLands. При регистрации в игре Вы получите код, который сможете активировать после регистрации на pirat.ca и получить 1000 дублонов.

Ваш код:
db0e0ad91548759ffeb9bb88bed405e1a4b3c165
 
     

Коварные горничные / Devious Maids / Сезон: 3 / Серии: 1-13 из 13 (Роб Бэйли / Rob Bailey) [2015 г., драма, комедия, детектив, WEB-DL, 720p] MVO (BaibaKo) + Original (Eng) [Полный]

Ответить на тему
 
Автор
Сообщение

Пост 03-Июн-2015 20:55

[Q] 

LPPI

-Коварные горничные / Devious Maids- Производство: США
Жанр: драма, комедия, детектив
Год выпуска: 2015 г.-Озвучка:
Перевод: Профессиональный (многоголосый, закадровый)
Оригинальный аудиопоток: английский-Сезон: 3
Серии: 13 из 13 серий
Продолжительность: ~ 00:43:00 мин серия-Режиссер: Роб Бэйли / Rob Bailey
В ролях: Грант Шоу, Мелинда Пейдж Хэмилтон, Сьюзэн Луччи, Ана Ортиз, Дрю Ван Экер, Дания Рамирез, Эди Ганем, Джуди Рейс,Брианна Браун, Мариана Клавено и др.-Описание: В центре сюжета - четыре амбициозные латиноамериканские горничные, работающие в домах богатых и знаменитых жителей Беверли-Хиллз. Их подруга найдена жестоко убитой. С собой в могилу она унесла общую шокирующую тайну. После этого им приходится хранить секрет, чего бы это ни стоило, продолжая работать на своих испорченных и красивых хозяев.- -Качество видео: WEB-DL
Контейнер: MKV
Стандарт разрешения: 720p
Видео кодек: MPEG4 AVC
Аудио кодек: AC3
Видео: 1280x720 (16:9), 23.976 fps, ~3 915 Kbps, 0.177 bit/pix
Аудио: Russian: AC3, 384 kbps, 6 ch, 48 kHz
Аудио #2: English: AC3, 384 kbps, 6 ch, 48 kHz
Cубтитры: отсутствуют-
1. Пробуждения
2. Отныне и во веки веков
3. Ужасающая правда
4. С тех пор, как ты уехал
5. У всех на устах
6. Она его сгубила
7. Переломный момент
8. Крик и шёпот
9. Плохая девочка
10. Пощёчина
11. Условия привязанности
12. Подозрение
13. Анатомия убийства
General
Unique ID : 180623510436958622870076898777293052995 (0x87E2D29F28F19EFFA669F692B4CEDC43)
Complete name : D:\Коварные горничные Сезон 3 2015 WEB-DL 720p BaibaKo\Devious.Maids.s03e01.HD720p.WEB-DL.Rus.Eng.BaibaKo.tv.mkv
Format : Matroska
Format version : Version 4 / Version 2
File size : 1.41 GiB
Duration : 42mn 13s
Overall bit rate : 4 770 Kbps
Encoded date : UTC 2015-06-03 13:16:25
Writing application : mkvmerge v7.9.0 ('Birds') 64bit
Writing library : libebml v1.3.1 + libmatroska v1.4.2
DURATION : 00:42:13.408000000
NUMBER_OF_FRAMES : 79169
NUMBER_OF_BYTES : 121603584
_STATISTICS_WRITING_APP : mkvmerge v7.9.0 ('Birds') 64bit
_STATISTICS_WRITING_DATE_UT : 2015-06-03 13:16:25
_STATISTICS_TAGS : BPS DURATION NUMBER_OF_FRAMES NUMBER_OF_BYTES
Video
ID : 1
Format : AVC
Format/Info : Advanced Video Codec
Format profile : [email protected]
Format settings, CABAC : Yes
Format settings, ReFrames : 5 frames
Codec ID : V_MPEG4/ISO/AVC
Duration : 42mn 13s
Bit rate : 3 915 Kbps
Width : 1 280 pixels
Height : 720 pixels
Display aspect ratio : 16:9
Frame rate mode : Constant
Frame rate : 23.976 fps
Color space : YUV
Chroma subsampling : 4:2:0
Bit depth : 8 bits
Scan type : Progressive
Bits/(Pixel*Frame) : 0.177
Stream size : 1.15 GiB (82%)
Writing library : x264 core 142 r2479 dd79a61
Encoding settings : cabac=1 / ref=5 / deblock=1:0:0 / analyse=0x3:0x113 / me=umh / subme=8 / psy=1 / psy_rd=1.00:0.00 / mixed_ref=1 / me_range=16 / chroma_me=1 / trellis=1 / 8x8dct=1 / cqm=0 / deadzone=21,11 / fast_pskip=1 / chroma_qp_offset=-2 / threads=12 / lookahead_threads=2 / sliced_threads=0 / nr=0 / decimate=1 / interlaced=0 / bluray_compat=0 / constrained_intra=0 / bframes=3 / b_pyramid=2 / b_adapt=2 / b_bias=0 / direct=3 / weightb=1 / open_gop=0 / weightp=2 / keyint=240 / keyint_min=24 / scenecut=40 / intra_refresh=0 / rc_lookahead=50 / rc=2pass / mbtree=1 / bitrate=3915 / ratetol=1.0 / qcomp=0.60 / qpmin=0 / qpmax=69 / qpstep=4 / cplxblur=20.0 / qblur=0.5 / vbv_maxrate=17500 / vbv_bufsize=17500 / nal_hrd=none / filler=0 / ip_ratio=1.40 / aq=1:1.00
Default : No
Forced : No
Color range : Limited
Color primaries : BT.709
Transfer characteristics : BT.709
Matrix coefficients : BT.709
Audio #1
ID : 2
Format : AC-3
Format/Info : Audio Coding 3
Mode extension : CM (complete main)
Format settings, Endianness : Big
Codec ID : A_AC3
Duration : 42mn 13s
Bit rate mode : Constant
Bit rate : 384 Kbps
Channel(s) : 6 channels
Channel positions : Front: L C R, Side: L R, LFE
Sampling rate : 48.0 KHz
Compression mode : Lossy
Stream size : 116 MiB (8%)
Language : Russian
Default : Yes
Forced : No
Audio #2
ID : 3
Format : AC-3
Format/Info : Audio Coding 3
Mode extension : CM (complete main)
Format settings, Endianness : Big
Codec ID : A_AC3
Duration : 42mn 13s
Bit rate mode : Constant
Bit rate : 384 Kbps
Channel(s) : 6 channels
Channel positions : Front: L C R, Side: L R, LFE
Sampling rate : 48.0 KHz
Compression mode : Lossy
Stream size : 116 MiB (8%)
Language : English
Default : No
Forced : No
-Скриншоты:---Добавлена 13 серия третьего сезона- -
Download / Скачать

Хотите скачать бесплатно? Зарегистрируйтесь на сайте (ссылка на регистрацию). Pirat.ca - самый быстрый торрент трекер в рунете!

Как скачивать  ·   Что такое торрент  ·   Рейтинг и ограничения



Последний раз редактировалось: LPPI (2015-08-27 11:22), всего редактировалось 11 раз(а)

LPPI ®

137549

Пост 03-Июн-2015 20:55 (спустя 10 секунд)

[Q] 

Добавлена 1 серия третьего сезона
[Профиль]  [ЛС] 

BraionServ1

Гроза морей

Пост 04-Июн-2015 01:09 (спустя 4 часа)

[Q] 

Может не туда написал А где же реклама?, так раздражала когда была этим подзависанием стартовой странички, что даже как-то скушно без привычного подвиса стало. Как я понялс окончательной блокировкой уходят спонсоры, может проще удалить все спорные раздачи с нашенскими фильмами и книженциями, а так пиратка может и в бытие уйти, непрогиб может боком встать к нашим фильмам интерес в сети такой же как и в кинотиатрах, только первые недели потом забыты, а на форуме висят бесрочно.
Я на телефон любил грузить и таких как я думаю было не мало
[Профиль]  [ЛС] 

LPPI ®

137549

Пост 11-Июн-2015 15:50 (спустя 7 дней)

[Q] 

Добавлена 2 серия третьего сезона
[Профиль]  [ЛС] 

LPPI ®

137549

Пост 19-Июн-2015 08:16 (спустя 7 дней)

[Q] 

Добавлена 3 серия третьего сезона
[Профиль]  [ЛС] 

LPPI ®

137549

Пост 24-Июн-2015 19:34 (спустя 5 дней)

[Q] 

Добавлена 4 серия третьего сезона
[Профиль]  [ЛС] 

LPPI ®

137549

Пост 01-Июл-2015 22:56 (спустя 7 дней)

[Q] 

Добавлена 5 серия третьего сезона
[Профиль]  [ЛС] 

LPPI ®

137549

Пост 17-Июл-2015 15:02 (спустя 15 дней)

[Q] 

Добавлена 6 и 7 серия третьего сезона
[Профиль]  [ЛС] 

LPPI ®

137549

Пост 24-Июл-2015 00:10 (спустя 6 дней)

[Q] 

Добавлена 8 серия третьего сезона
[Профиль]  [ЛС] 

LPPI ®

137549

Пост 30-Июл-2015 22:25 (спустя 6 дней)

[Q] 

Добавлена 9 серия третьего сезона
[Профиль]  [ЛС] 

LPPI ®

137549

Пост 06-Авг-2015 21:18 (спустя 6 дней)

[Q] 

Добавлена 10 серия третьего сезона
[Профиль]  [ЛС] 

LPPI ®

137549

Пост 14-Авг-2015 16:34 (спустя 7 дней)

[Q] 

Добавлена 11 серия третьего сезона
[Профиль]  [ЛС] 

LPPI ®

137549

Пост 20-Авг-2015 19:28 (спустя 6 дней)

[Q] 

Добавлена 12 серия третьего сезона
[Профиль]  [ЛС] 

LPPI ®

137549

Пост 27-Авг-2015 11:22 (спустя 6 дней)

[Q] 

Добавлена 13 серия третьего сезона
[Профиль]  [ЛС] 

romanser

Лоцман

Пост 05-Сен-2015 22:54 (спустя 9 дней)

[Q] 

А когда выйдет 4 сезон?
[Профиль]  [ЛС] 

янка-сан

Гроза морей

Пост 18-Дек-2015 20:49 (спустя 3 месяца 12 дней)

[Q] 

спасибо Автору респект!!!
[Профиль]  [ЛС] 
Показать сообщения:    
Ответить на тему

Текущее время: Сегодня 08:06

Часовой пояс: GMT + 4



Вы не можете начинать темы
Вы не можете отвечать на сообщения
Вы не можете редактировать свои сообщения
Вы не можете удалять свои сообщения
Вы не можете голосовать в опросах
Вы не можете прикреплять файлы к сообщениям
Вы не можете скачивать файлы

▼ Вниз