ML
     
  Уважаемый Гость!
Вы можете поддержать проект и зарегистрироваться у наших партнеров - онлайн-стратегия MyLands. При регистрации в игре Вы получите код, который сможете активировать после регистрации на pirat.ca и получить 1000 дублонов.

Ваш код:
4fbd9898b6f10799a3e8edf60f31febd2bc15453
 
     

Шёпот / The Whispers / Сезон: 1 / Серии: 1-13 из 13 (Чарльз Бисон / Charles Beeson, П.Дж. Пеше / P.J. Pesce, Холли Дэйл / Holly Dale) [2015 г., фантастика, драма, WEB-DL, 720p] MVO (BaibaKo) + Original (Eng) + Sub (Rus) [Полный]

Ответить на тему
 
Автор
Сообщение

Пост 03-Июн-2015 22:41

[Q] 

LPPI

-Шёпот / The Whispers- Производство: США
Жанр: фантастика, драма
Год выпуска: 2015 г.-Озвучка:
Перевод: Профессиональный (многоголосый, закадровый)
Оригинальный аудиопоток: английский-Сезон: 1
Серии: 13 из 13 серий
Продолжительность: ~ 00:43:00 мин серия-Режиссер: Чарльз Бисон / Charles Beeson, П.Дж. Пеше / P.J. Pesce, Холли Дэйл / Holly Dale
В ролях: Лили Рэйб, Барри Слоан, Майло Вентимилья, Дерек Уэбстер, Брианна Браун, Каталина Дэнис, Кайли Роджерс, Кайл Харрисон и др.-Описание: Инопланетные силы проникают в правительство США и вызывают хаос, при этом остаются незамеченными. Правительственным агентам удается выяснить, что пришельцы используют для воплощения своих целей самое дорогое, что у нас есть — детей.- -Качество видео: WEB-DL
Контейнер: MKV
Стандарт разрешения: 720p
Видео кодек: MPEG4 AVC
Аудио кодек: AC3
Видео: 1280x720 (16:9), 23.976 fps, ~3 813 Kbps, 0.173 bit/pix
Аудио: Russian: AC3, 384 kbps, 6 ch, 48 kHz
Аудио #2: English: AC3, 384 kbps, 6 ch, 48 kHz
Cубтитры: русские (форсированные, только жесты мальчика)-
1. Видишь, крестик нарисован
2. Прятки
3. Столкновение
4. Катастрофа
5. Если копать глубже
6. Стрелец
7. Чего бы это ни стоило
8. Опустошённый
9. Сломленное дитя
10. Худшие опасения
11. Тоска по дому
12. Путешественник во тьме
13. Конец игры
General
Unique ID : 237905757147054883361651101850964724734 (0xB2FAFB6F0B88B33BBC36AD77673E0BFE)
Complete name : D:\Шёпот 2015 WEB-DL 720p BaibaKo\The.Whispers.s01e01.HD720p.WEB-DL.Rus.Eng.BaibaKo.tv.mkv
Format : Matroska
Format version : Version 4 / Version 2
File size : 1.37 GiB
Duration : 42mn 2s
Overall bit rate : 4 674 Kbps
Encoded date : UTC 2015-06-03 12:50:24
Writing application : mkvmerge v7.9.0 ('Birds') 64bit
Writing library : libebml v1.3.1 + libmatroska v1.4.2
DURATION : 00:26:23.150000000
NUMBER_OF_FRAMES : 8
NUMBER_OF_BYTES : 460
_STATISTICS_WRITING_APP : mkvmerge v7.9.0 ('Birds') 64bit
_STATISTICS_WRITING_DATE_UT : 2015-06-03 12:50:24
_STATISTICS_TAGS : BPS DURATION NUMBER_OF_FRAMES NUMBER_OF_BYTES
Video
ID : 1
Format : AVC
Format/Info : Advanced Video Codec
Format profile : [email protected]
Format settings, CABAC : No
Format settings, ReFrames : 2 frames
Codec ID : V_MPEG4/ISO/AVC
Duration : 42mn 2s
Bit rate : 3 813 Kbps
Width : 1 280 pixels
Height : 720 pixels
Display aspect ratio : 16:9
Frame rate mode : Constant
Frame rate : 23.976 fps
Color space : YUV
Chroma subsampling : 4:2:0
Bit depth : 8 bits
Scan type : Progressive
Bits/(Pixel*Frame) : 0.173
Stream size : 1.12 GiB (82%)
Language : English
Default : Yes
Forced : No
Color range : Limited
Color primaries : BT.709
Transfer characteristics : BT.709
Matrix coefficients : BT.709
Audio #1
ID : 2
Format : AC-3
Format/Info : Audio Coding 3
Mode extension : CM (complete main)
Format settings, Endianness : Big
Codec ID : A_AC3
Duration : 42mn 2s
Bit rate mode : Constant
Bit rate : 384 Kbps
Channel(s) : 6 channels
Channel positions : Front: L C R, Side: L R, LFE
Sampling rate : 48.0 KHz
Compression mode : Lossy
Stream size : 115 MiB (8%)
Language : Russian
Default : Yes
Forced : No
Audio #2
ID : 3
Format : AC-3
Format/Info : Audio Coding 3
Mode extension : CM (complete main)
Format settings, Endianness : Big
Codec ID : A_AC3
Duration : 42mn 2s
Bit rate mode : Constant
Bit rate : 384 Kbps
Channel(s) : 6 channels
Channel positions : Front: L C R, Side: L R, LFE
Sampling rate : 48.0 KHz
Compression mode : Lossy
Stream size : 115 MiB (8%)
Language : English
Default : No
Forced : No
Text
ID : 4
Format : UTF-8
Codec ID : S_TEXT/UTF8
Codec ID/Info : UTF-8 Plain Text
Language : Russian
Default : Yes
Forced : Yes
-Скриншоты:---Добавлена 13 серия первого сезона- -
Download / Скачать

Хотите скачать бесплатно? Зарегистрируйтесь на сайте (ссылка на регистрацию). Pirat.ca - самый быстрый торрент трекер в рунете!

Как скачивать  ·   Что такое торрент  ·   Рейтинг и ограничения



Последний раз редактировалось: LPPI (2015-09-02 08:27), всего редактировалось 13 раз(а)

LPPI ®

137537

Пост 03-Июн-2015 22:42 (спустя 24 секунды)

[Q] 

Добавлена 1 серия первого сезона
[Профиль]  [ЛС] 

LPPI ®

137537

Пост 10-Июн-2015 11:32 (спустя 6 дней)

[Q] 

Добавлена 2 серия первого сезона
[Профиль]  [ЛС] 

LPPI ®

137537

Пост 18-Июн-2015 08:34 (спустя 7 дней)

[Q] 

Добавлена 3 серия первого сезона
[Профиль]  [ЛС] 

XMax

Флибустьер

Пост 20-Июн-2015 12:48 (спустя 2 дня 4 часа)

[Q] 

Спасибо. Вроде не плох сериал.
Автору респект!!! Пиратка рулез!!!
[Профиль]  [ЛС] 

LPPI ®

137537

Пост 24-Июн-2015 10:29 (спустя 3 дня)

[Q] 

Добавлена 4 серия первого сезона
[Профиль]  [ЛС] 

LPPI ®

137537

Пост 01-Июл-2015 22:09 (спустя 7 дней)

[Q] 

Добавлена 5 серия первого сезона
[Профиль]  [ЛС] 

LPPI ®

137537

Пост 16-Июл-2015 10:10 (спустя 14 дней)

[Q] 

Добавлена 6 и 7 серия первого сезона
[Профиль]  [ЛС] 

LPPI ®

137537

Пост 22-Июл-2015 19:42 (спустя 6 дней)

[Q] 

Добавлена 8 серия первого сезона
[Профиль]  [ЛС] 

LPPI ®

137537

Пост 05-Авг-2015 10:32 (спустя 13 дней)

[Q] 

Добавлена 9 серия первого сезона
[Профиль]  [ЛС] 

LPPI ®

137537

Пост 13-Авг-2015 09:55 (спустя 7 дней)

[Q] 

Добавлена 10 серия первого сезона
[Профиль]  [ЛС] 

Pesok

Гроза морей

Пост 16-Авг-2015 01:37 (спустя 2 дня 15 часов)

[Q] 

спасибо! неплохой сериал

_________________
[Профиль]  [ЛС] 

LPPI ®

137537

Пост 19-Авг-2015 20:04 (спустя 3 дня)

[Q] 

Добавлена 11 серия первого сезона
[Профиль]  [ЛС] 

LPPI ®

137537

Пост 26-Авг-2015 10:00 (спустя 6 дней)

[Q] 

Добавлена 12 серия первого сезона
[Профиль]  [ЛС] 

LPPI ®

137537

Пост 02-Сен-2015 08:28 (спустя 6 дней)

[Q] 

Добавлена 13 серия первого сезона
[Профиль]  [ЛС] 
Показать сообщения:    
Ответить на тему

Текущее время: Сегодня 19:55

Часовой пояс: GMT + 4



Вы не можете начинать темы
Вы не можете отвечать на сообщения
Вы не можете редактировать свои сообщения
Вы не можете удалять свои сообщения
Вы не можете голосовать в опросах
Вы не можете прикреплять файлы к сообщениям
Вы не можете скачивать файлы

▼ Вниз