ML
     
  Уважаемый Гость!
Вы можете поддержать проект и зарегистрироваться у наших партнеров - онлайн-стратегия MyLands. При регистрации в игре Вы получите код, который сможете активировать после регистрации на pirat.ca и получить 1000 дублонов.

Ваш код:
0af2e2107bc9b5dd5ac2c09f9fc25e1a77c43887
 
     

Ганнибал / Hannibal / Сезон: 3 / Серии: 1-13 из 13 (Майкл Раймер / Michael Rymer, ...) [2015 г., детектив, триллер, криминал, драма, WEB-DL, 720p] MVO (BaibaKo) + Original (Eng) [Полный]

Ответить на тему
 
Автор
Сообщение

Пост 06-Июн-2015 14:47

[Q] 

LPPI

-Ганнибал / Hannibal- Производство: США
Жанр: детектив, триллер, криминал, драма
Год выпуска: 2015 г.-Озвучка:
Перевод: Профессиональный (многоголосый, закадровый)
Оригинальный аудиопоток: английский-Сезон: 3
Серии: 13 из 13 серий
Продолжительность: ~ 00:42:00 мин серия-Режиссер: Майкл Раймер / Michael Rymer, Винченцо Натали / Vincenzo Natali, Дэвид Слэйд / David Slade
В ролях: Мадс Миккельсен, Хью Дэнси, Каролин Давернас, Лара Жан Чоростецки, Аарон Абрамс, Лоренс Фишбёрн, Эттьенн Парк, Скотт Томпсон, Торианна Ли, Демор Барнс-Описание: До событий фильмов «Молчание ягнят» и «Красный Дракон» Доктор Ганнибал Лектер был блестящим психиатром, работающим на ФБР. Уилл Грэм — одаренный профайлер, который вместе с ФБР разыскивает серийного убийцу. Уникальный способ мышления Грэма дает ему удивительную способность глубоко проникаться чувствами другого человека, даже психопата. Он может понять, что ими движет. Но когда ум преследуемого убийцы оказывается слишком сложным, Грэму и самому требуется помощь одного из ведущих психиатрических умов в стране - доктора Лектера. В то время как Уилл охотится за жестокими преступниками, он и понятия не имеет, что каждый день имеет дело с самым одаренным из них.- -Качество видео: WEB-DL
Контейнер: MKV
Стандарт разрешения: 720p
Видео кодек: MPEG4 AVC
Аудио кодек: AC3
Видео: 1280x718 (16:9), 23.976 fps, ~3 995 Kbps, 0.181 bit/pix
Аудио: Russian: AC3, 384 kbps, 6 ch, 48 kHz
Аудио #2: English: AC3, 384 kbps, 6 ch, 48 kHz
Cубтитры: отсутствуют-
1. Антипасто
2. Весна
3. Секондо
4. Аперитиво
5. Гарнир
6. Сладкий
7. Переваривание
8. Великий красный дракон
9. ...И жена облачённая солнцем
10. ...И жена облечённая в солнце
11. ...И морское чудовище
12. Число зверя 666
13. Гнев агнца
General
Unique ID : 242864968753270317686535085805222151955 (0xB6B617718E0A113EAEEB578BE0B6C713)
Complete name : D:\Ганнибал 2015 S3 HD720p WEB-DL\Hannibal.s03e01.HD720p.WEB-DL.Rus.Eng.BaibaKo.tv.mkv
Format : Matroska
Format version : Version 4 / Version 2
File size : 1.46 GiB
Duration : 43mn 7s
Overall bit rate : 4 860 Kbps
Encoded date : UTC 2015-06-05 21:49:35
Writing application : mkvmerge v7.9.0 ('Birds') 64bit
Writing library : libebml v1.3.1 + libmatroska v1.4.2
DURATION : 00:43:07.936000000
NUMBER_OF_FRAMES : 80873
NUMBER_OF_BYTES : 124220928
_STATISTICS_WRITING_APP : mkvmerge v7.9.0 ('Birds') 64bit
_STATISTICS_WRITING_DATE_UT : 2015-06-05 21:49:35
_STATISTICS_TAGS : BPS DURATION NUMBER_OF_FRAMES NUMBER_OF_BYTES
Video
ID : 1
Format : AVC
Format/Info : Advanced Video Codec
Format profile : [email protected]
Format settings, CABAC : No
Format settings, ReFrames : 2 frames
Codec ID : V_MPEG4/ISO/AVC
Duration : 43mn 7s
Bit rate : 3 995 Kbps
Width : 1 280 pixels
Height : 718 pixels
Display aspect ratio : 16:9
Frame rate mode : Constant
Frame rate : 23.976 fps
Color space : YUV
Chroma subsampling : 4:2:0
Bit depth : 8 bits
Scan type : Progressive
Bits/(Pixel*Frame) : 0.181
Stream size : 1.20 GiB (82%)
Language : English
Default : Yes
Forced : No
Color range : Limited
Color primaries : BT.709
Transfer characteristics : BT.709
Matrix coefficients : BT.709
Audio #1
ID : 2
Format : AC-3
Format/Info : Audio Coding 3
Mode extension : CM (complete main)
Format settings, Endianness : Big
Codec ID : A_AC3
Duration : 43mn 7s
Bit rate mode : Constant
Bit rate : 384 Kbps
Channel(s) : 6 channels
Channel positions : Front: L C R, Side: L R, LFE
Sampling rate : 48.0 KHz
Compression mode : Lossy
Stream size : 118 MiB (8%)
Language : Russian
Default : Yes
Forced : No
Audio #2
ID : 3
Format : AC-3
Format/Info : Audio Coding 3
Mode extension : CM (complete main)
Format settings, Endianness : Big
Codec ID : A_AC3
Duration : 43mn 7s
Bit rate mode : Constant
Bit rate : 384 Kbps
Channel(s) : 6 channels
Channel positions : Front: L C R, Side: L R, LFE
Sampling rate : 48.0 KHz
Compression mode : Lossy
Stream size : 118 MiB (8%)
Language : English
Default : No
Forced : No
-Скриншоты:---Добавлена 13 серия третьего сезона- -
Download / Скачать

Хотите скачать бесплатно? Зарегистрируйтесь на сайте (ссылка на регистрацию). Pirat.ca - самый быстрый торрент трекер в рунете!

Как скачивать  ·   Что такое торрент  ·   Рейтинг и ограничения



Последний раз редактировалось: LPPI (2015-08-30 19:56), всего редактировалось 12 раз(а)

LPPI ®

137543

Пост 13-Июн-2015 22:09 (спустя 7 дней)

[Q] 

Добавлена 2 серия третьего сезона
[Профиль]  [ЛС] 

LPPI ®

137543

Пост 21-Июн-2015 21:45 (спустя 7 дней)

[Q] 

Добавлена 3 серия третьего сезона
[Профиль]  [ЛС] 

LPPI ®

137543

Пост 28-Июн-2015 19:55 (спустя 6 дней)

[Q] 

Добавлена 4 серия третьего сезона
[Профиль]  [ЛС] 

LPPI ®

137543

Пост 05-Июл-2015 04:15 (спустя 6 дней)

[Q] 

Добавлена 5 серия третьего сезона
[Профиль]  [ЛС] 

LPPI ®

137543

Пост 12-Июл-2015 16:46 (спустя 7 дней)

[Q] 

Добавлена 6 серия третьего сезона
[Профиль]  [ЛС] 

LPPI ®

137543

Пост 21-Июл-2015 15:41 (спустя 8 дней)

[Q] 

Добавлена 7 серия третьего сезона
[Профиль]  [ЛС] 

LPPI ®

137543

Пост 28-Июл-2015 11:05 (спустя 6 дней)

[Q] 

Добавлена 8 серия третьего сезона
[Профиль]  [ЛС] 

dbf

Лоцман

Пост 28-Июл-2015 20:08 (спустя 9 часов)

[Q] 

Спасибочки!!!! Жена прется по этому сериалу!!!!!
[Профиль]  [ЛС] 

LPPI ®

137543

Пост 04-Авг-2015 21:07 (спустя 7 дней)

[Q] 

Добавлена 9 серия третьего сезона
[Профиль]  [ЛС] 

dj421520

Пост 07-Авг-2015 17:47 (спустя 2 дня 20 часов)

[Q] 

dbf я бы опасался, какие мысли в голове твой жены
[Профиль]  [ЛС] 

LPPI ®

137543

Пост 10-Авг-2015 16:52 (спустя 2 дня 23 часа)

[Q] 

Добавлена 10 серия третьего сезона
[Профиль]  [ЛС] 

LPPI ®

137543

Пост 18-Авг-2015 18:43 (спустя 8 дней)

[Q] 

Добавлена 11 серия третьего сезона
[Профиль]  [ЛС] 

LPPI ®

137543

Пост 26-Авг-2015 16:20 (спустя 7 дней)

[Q] 

Добавлена 12 серия третьего сезона
[Профиль]  [ЛС] 

LPPI ®

137543

Пост 30-Авг-2015 19:56 (спустя 4 дня)

[Q] 

Добавлена 13 серия третьего сезона
[Профиль]  [ЛС] 

flybr

Лоцман

Пост 31-Авг-2015 12:02 (спустя 16 часов)

[Q] 

Осталось скачать 0,9% !!!!! вот зачем так делать? уже всю ночь вишу и никого нет ((((
[Профиль]  [ЛС] 
Показать сообщения:    
Ответить на тему

Текущее время: Сегодня 00:07

Часовой пояс: GMT + 4



Вы не можете начинать темы
Вы не можете отвечать на сообщения
Вы не можете редактировать свои сообщения
Вы не можете удалять свои сообщения
Вы не можете голосовать в опросах
Вы не можете прикреплять файлы к сообщениям
Вы не можете скачивать файлы

▼ Вниз