ML
     
  Уважаемый Гость!
Вы можете поддержать проект и зарегистрироваться у наших партнеров - онлайн-стратегия MyLands. При регистрации в игре Вы получите код, который сможете активировать после регистрации на pirat.ca и получить 1000 дублонов.

Ваш код:
47bfc18b89c74e4ae0d974e9b6943639e2bff08e
 
     

Восьмое чувство / Sense8 / Сезон: 1 / Серии: 1-12 из 12 (Дэн Гласс / Dan Glass, ...) [2015 г., фантастика, драма, WEBRip] MVO (BaibaKo) + Original (Eng) [Полный]

Ответить на тему
 
Автор
Сообщение

Пост 06-Июн-2015 15:02

[Q] 

LPPI

-Восьмое чувство / Sense8- Производство: США
Жанр: фантастика, драма
Год выпуска: 2015 г.-Озвучка:
Перевод: Профессиональный (многоголосый, закадровый)
Оригинальный аудиопоток: английский-Сезон: 1
Серии: 12 из 12 серий
Продолжительность: ~ 00:50:00 мин серия-Режиссер: Дэн Гласс / Dan Glass, Энди Вачовски / Andy Wachowski, Лана Вачовски / Lana Wachowski
В ролях: Джеми Клейтон, Макс Римельт, Анупам Кхер, Джеронимо Бест, Ари Брикман, Сара Сон, Фрима Аджьеман, Амл Амин, Навин Эндрюс, Ду На Пэ-Описание: Группа людей из разных точек мира неожиданно оказываются ментально связанными, теперь им придется найти способ, чтобы выжить, потому что за ними начинают охотиться те, кто видит в них угрозу для этого мира…- -Качество видео: WEBRip
Контейнер: AVI
Видео кодек: XviD
Аудио кодек: MP3
Видео: 720x400 (1.80:1), 23.976 fps, XviD build 50 ~1527 kbps avg, 0.22 bit/pixel
Аудио: Russian: 48 kHz, MPEG Layer 3, 2 ch, ~192.00 kbps avg
Аудио #2: English: 48 kHz, MPEG Layer 3, 2 ch, ~192.00 kbps avg
Cубтитры: отсутствуют-
1. Лимбический резонанс
2. I Am Also A We
3. Smart Money's on the Skinny Bitch
4. Что происходит?
5. Art Is Like Religion
6. Демоны
7. WWN Double-D?
8. We Will All Be Judged by the Courage of Our Hearts
9. Death Doesn't Let You Say Goodbye
10. What Is Human?
11. Just Turn the Wheel and the Future Changes
12. I Can't Leave Her
General
Complete name : C:\Users\Ivan\Desktop\Восьмое чувство 2015 S1 WEBRip\Sense8.s01e01.WEBRip.XviD.Rus.Eng.BaibaKo.tv.avi
Format : AVI
Format/Info : Audio Video Interleave
File size : 923 MiB
Duration : 1h 6mn
Overall bit rate : 1 926 Kbps
Writing application : VirtualDubMod 1.5.10.2 (build 2540/release)
Writing library : VirtualDubMod build 2540/release
Video
ID : 0
Format : MPEG-4 Visual
Format profile : Advanced [email protected]
Format settings, BVOP : 2
Format settings, QPel : No
Format settings, GMC : No warppoints
Format settings, Matrix : Default (H.263)
Codec ID : XVID
Codec ID/Hint : XviD
Duration : 1h 6mn
Bit rate : 1 529 Kbps
Width : 720 pixels
Height : 400 pixels
Display aspect ratio : 16:9
Frame rate : 23.976 fps
Color space : YUV
Chroma subsampling : 4:2:0
Bit depth : 8 bits
Scan type : Progressive
Compression mode : Lossy
Bits/(Pixel*Frame) : 0.221
Stream size : 732 MiB (79%)
Writing library : XviD 1.2.1 (UTC 2008-12-04)
Audio #1
ID : 1
Format : MPEG Audio
Format version : Version 1
Format profile : Layer 3
Mode : Joint stereo
Mode extension : MS Stereo
Codec ID : 55
Codec ID/Hint : MP3
Duration : 1h 6mn
Bit rate mode : Constant
Bit rate : 192 Kbps
Channel(s) : 2 channels
Sampling rate : 48.0 KHz
Compression mode : Lossy
Stream size : 92.0 MiB (10%)
Alignment : Aligned on interleaves
Interleave, duration : 42 ms (1.00 video frame)
Interleave, preload duratio : 504 ms
Audio #2
ID : 2
Format : MPEG Audio
Format version : Version 1
Format profile : Layer 3
Mode : Joint stereo
Mode extension : MS Stereo
Codec ID : 55
Codec ID/Hint : MP3
Duration : 1h 6mn
Bit rate mode : Constant
Bit rate : 192 Kbps
Channel(s) : 2 channels
Sampling rate : 48.0 KHz
Compression mode : Lossy
Stream size : 92.0 MiB (10%)
Alignment : Aligned on interleaves
Interleave, duration : 42 ms (1.00 video frame)
Interleave, preload duratio : 504 ms
-Скриншоты:--Добавлена 8, 9, 10, 11, 12 серия первого сезона (Финал)- -
Download / Скачать

Хотите скачать бесплатно? Зарегистрируйтесь на сайте (ссылка на регистрацию). Pirat.ca - самый быстрый торрент трекер в рунете!

Как скачивать  ·   Что такое торрент  ·   Рейтинг и ограничения



Последний раз редактировалось: LPPI (2015-06-08 10:10), всего редактировалось 3 раз(а)

GLide

Шкипер

116

Пост 07-Июн-2015 10:32 (спустя 19 часов)

[Q] 

Оперативненько ad Автору респект!!!

_________________


Последний раз редактировалось: GLide (2015-06-07 11:16), всего редактировалось 1 раз
[Профиль]  [ЛС] 

LPPI ®

137546

Пост 07-Июн-2015 10:41 (спустя 9 минут)

[Q] 

Добавлена 4, 5, 6, 7 серия первого сезона
[Профиль]  [ЛС] 

oldmaster

Лоцман

Пост 07-Июн-2015 12:14 (спустя 1 час 32 минуты)

[Q] 

Фильм средней степени нудности. Пропаганда гомосексуализма зашкаливает. Настоящий пират не приемлет содомию.
[Профиль]  [ЛС] 

oldmaster

Лоцман

Пост 07-Июн-2015 15:52 (спустя 3 часа)

[Q] 

Вторую серию недосмотрел. Педерастия и лесбос зашкаливают.
[Профиль]  [ЛС] 

Golden

Морской Волк

Пост 07-Июн-2015 16:12 (спустя 19 минут)

[Q] 

Спасибо, что предупредили!
Пидары - в самом деле реальная угроза для этого мира. Не удивительно, что с ними борются.
Кто следующие за свои права и свободы будут так отчаянно бороться?! Педофилы, зоофилы, некрофилы?
Хотел посмотреть сериал с детьми. Теперь точно не буду.
[Профиль]  [ЛС] 

Loxly

Гроза морей

Пост 07-Июн-2015 20:51 (спустя 4 часа)

[Q] 

Реально, спасибо, что предупредили. Нет пидолургам!
[Профиль]  [ЛС] 

homa-roma

Шкипер

Пост 08-Июн-2015 04:10 (спустя 7 часов)

[Q] 

Фильм зачет, да согласен первые 2 серии акты пидорков(что кстати проматывается) и транса с лесбой(там таки не понял куда она его шпилила в искуственную дырку или глаз))). А так начиная с 3 серии нормальный экшн!!! жду продолжения!
[Профиль]  [ЛС] 

LPPI ®

137546

Пост 08-Июн-2015 10:10 (спустя 5 часов)

[Q] 

Добавлена 8, 9, 10, 11, 12 серия первого сезона (Финал)
[Профиль]  [ЛС] 

spidercola86

3254

Пост 08-Июн-2015 13:13 (спустя 3 часа)

[Q] 

по описанию вылитый сериал Герои
[Профиль]  [ЛС] 

AntonioNB

Штурман

Пост 08-Июн-2015 18:29 (спустя 5 часов)

[Q] 

684362по описанию вылитый сериал Герои
ага только от вачовски

_________________
[Профиль]  [ЛС] 

homa-roma

Шкипер

Пост 09-Июн-2015 01:57 (спустя 7 часов)

[Q] 

ага только от вачовски
режиссеры почти каждой серии разные, и да это похоже на героев но и в тоже время другое.
[Профиль]  [ЛС] 

BiOHAZARD

Корсар

503

Пост 29-Июн-2015 19:35 (спустя 20 дней)

[Q] 

684317Фильм зачет, да согласен первые 2 серии акты пидорков(что кстати проматывается) и транса с лесбой(там таки не понял куда она его шпилила в искуственную дырку или глаз))). А так начиная с 3 серии нормальный экшн!!! жду продолжения!
Ну так, а что вы хотели) один из режиссеров (Лана Вачовски) когда то был мужчиной)
[Профиль]  [ЛС] 

a_barat

Гроза морей

3249

Пост 09-Июл-2015 18:43 (спустя 9 дней)

[Q] 

Гомосятина зашкаливает ваще. Даже с перемоткой..
фу

_________________
This message represents an official view of the voices in my head af
[Профиль]  [ЛС] 

rambo1234

Пост 30-Июл-2015 23:28 (спустя 21 день)

[Q] 

Спасибо за предупреждение! Качать и смотреть не буду. Пидорги идут нах!
[Профиль]  [ЛС] 

Пост 20-Дек-2015 20:55 (спустя 4 месяца 20 дней)

Топик был перенесен из форума Сериалы в эфире в форум Зарубежные сериалы
erchine
 

negvat

Матрос

Пост 02-Мар-2016 01:37 (спустя 7 месяцев 2 дня)

[Q] 

Истинная и зловредная гомосятина это «Перевод: Профессиональный (многоголосый, закадровый)». Весьма другое впечатление с горе-озвучкой.
Думал с любимой сериальчик глянуть, а она инглиша не знает, но как услышал "озвучку" после оригинала, так… решил качнуть русские субтитры к оригинальной дорожке, нафиг)))
А сериал клёвый, психоделичный. Тема гомо присутствует, но только в рамках освещения (вполне адекватного кстати) траблов меньшинств, и не является основной. Если вы не латентный и не страдаете моралофажеством, то проблем при просмотре картины не будет) Вачовски кросавчеги палюбому))

_________________
"Software is like sex: it is better when it's free" (Linus Torvalds)
[Профиль]  [ЛС] 
Показать сообщения:    
Ответить на тему

Текущее время: Сегодня 07:05

Часовой пояс: GMT + 4



Вы не можете начинать темы
Вы не можете отвечать на сообщения
Вы не можете редактировать свои сообщения
Вы не можете удалять свои сообщения
Вы не можете голосовать в опросах
Вы не можете прикреплять файлы к сообщениям
Вы не можете скачивать файлы

▼ Вниз