ML
     
  Уважаемый Гость!
Вы можете поддержать проект и зарегистрироваться у наших партнеров - онлайн-стратегия MyLands. При регистрации в игре Вы получите код, который сможете активировать после регистрации на pirat.ca и получить 1000 дублонов.

Ваш код:
ee1288b6f7c09d9d2cb2a0f972aba30460ce9333
 
     

Что живёт внутри / What Lives Inside / Сезон: 1 / Серии: 1-4 из 4 (Роберт Стромберг / Robert Stromberg) [2015 г., фэнтези, драма, WEBRip, 1080p] MVO [Rus, Ukr] (BaibaKo) + Original (Eng) [Полный]

Ответить на тему
 
Автор
Сообщение

Пост 07-Июн-2015 10:57

[Q] 

LPPI

-Что живёт внутри / What Lives Inside- Производство: США, RSA Films, Laundry Design
Жанр: фэнтези, драма
Год выпуска: 2015 г.-Озвучка:
Перевод: Профессиональный (многоголосый, закадровый) [Rus, Ukr]
Оригинальный аудиопоток: английский-Сезон: 1
Серии: 4 из 4 серий
Продолжительность: ~ 00:12:00 мин серия-Режиссер: Роберт Стромберг / Robert Stromberg
В ролях: Дж.К. Симмонс, Колин Хэнкс и Кэтрин О'Хара-Описание: Готовы ли Вы перенестись в мир за пределами вашего воображения? Тейлор скорбит о потере своего отца - всемирно известного мультипликатора. В какой-то момент, заглянув в мастерскую, он оказывается в волшебном мире шоу отца.- -Качество видео: WEBRip
Контейнер: MKV
Стандарт разрешения: 1080p
Видео кодек: MPEG4 AVC
Аудио кодек: AC3
Видео: 1920x1080 (16:9), 23.976 fps, ~1 814 Kbps
Аудио: Russian: AC3, 384 kbps, 2 ch, 48 kHz
Аудио: Ukraine: AC3, 384 kbps, 2 ch, 48 kHz
Аудио #2: English: AC3, 384 kbps, 2 ch, 48 kHz
Cубтитры: отсутствуют-
General
Unique ID : 223600636860945506875512275045681852493 (0xA837EA8CD57C00EA8C2B2EB97935F04D)
Complete name : D:\Что живёт внутри S1 2015 HD1080p WEBRip\What.Lives.Inside.s01e01.HD1080p.WEBRip.Rus.Ukr.Eng.BaibaKo.tv.mkv
Format : Matroska
Format version : Version 4 / Version 2
File size : 271 MiB
Duration : 12mn 30s
Overall bit rate : 3 026 Kbps
Encoded date : UTC 2015-06-06 23:16:58
Writing application : mkvmerge v7.9.0 ('Birds') 64bit
Writing library : libebml v1.3.1 + libmatroska v1.4.2
DURATION : 00:12:30.784000000
NUMBER_OF_FRAMES : 23462
NUMBER_OF_BYTES : 36037632
_STATISTICS_WRITING_APP : mkvmerge v7.9.0 ('Birds') 64bit
_STATISTICS_WRITING_DATE_UT : 2015-06-06 23:16:58
_STATISTICS_TAGS : BPS DURATION NUMBER_OF_FRAMES NUMBER_OF_BYTES
Video
ID : 1
Format : AVC
Format/Info : Advanced Video Codec
Format profile : [email protected]
Format settings, CABAC : Yes
Format settings, ReFrames : 3 frames
Codec ID : V_MPEG4/ISO/AVC
Duration : 12mn 30s
Bit rate : 1 814 Kbps
Width : 1 920 pixels
Height : 1 080 pixels
Display aspect ratio : 16:9
Frame rate mode : Constant
Frame rate : 23.976 fps
Color space : YUV
Chroma subsampling : 4:2:0
Bit depth : 8 bits
Scan type : Progressive
Bits/(Pixel*Frame) : 0.036
Stream size : 162 MiB (60%)
Default : Yes
Forced : No
Audio #1
ID : 2
Format : AC-3
Format/Info : Audio Coding 3
Mode extension : CM (complete main)
Format settings, Endianness : Big
Codec ID : A_AC3
Duration : 12mn 30s
Bit rate mode : Constant
Bit rate : 384 Kbps
Channel(s) : 2 channels
Channel positions : Front: L R
Sampling rate : 48.0 KHz
Compression mode : Lossy
Stream size : 34.4 MiB (13%)
Language : Russian
Default : Yes
Forced : No
Audio #2
ID : 3
Format : AC-3
Format/Info : Audio Coding 3
Mode extension : CM (complete main)
Format settings, Endianness : Big
Codec ID : A_AC3
Duration : 12mn 30s
Bit rate mode : Constant
Bit rate : 384 Kbps
Channel(s) : 2 channels
Channel positions : Front: L R
Sampling rate : 48.0 KHz
Compression mode : Lossy
Stream size : 34.4 MiB (13%)
Language : Ukrainian
Default : No
Forced : No
Audio #3
ID : 4
Format : AC-3
Format/Info : Audio Coding 3
Mode extension : CM (complete main)
Format settings, Endianness : Big
Codec ID : A_AC3
Duration : 12mn 30s
Bit rate mode : Constant
Bit rate : 384 Kbps
Channel(s) : 2 channels
Channel positions : Front: L R
Sampling rate : 48.0 KHz
Compression mode : Lossy
Stream size : 34.4 MiB (13%)
Language : English
Default : No
Forced : No
-Скриншоты:--
при каждом добавлении создётся новый торрент. Чтобы начать докачку новой серии, пользователям необходимо сделать следующее:
(1) остановить скачивание,
(2) удалить старый торрент у себя из клиента (старые серии удалять не надо),
(3) скачать новый торрент и запустить его у себя в клиенте, при этом указать клиенту путь в старую папку куда и должно происходить скачивание новых серий.
Ваш клиент при этом должен произвести хеширование (проверку) старой папки и будет докачивать только те серии которых у вас ещё нет. Старые серии при этом не удаляются, а продолжают раздаваться!
Eсли вы уже удалили старые серии, то предотвратить повторную закачку старых серий можно, отжав галочку в соответствующих местах при запуске нового торрента. (по возможности, желательно не удалять старые серии как можно дольше чтобы релизёр не столько продолжал раздавать старые серии, а смог сконцентрироваться на новых)
-Добавлена 4 серия первого сезона (Финал)- -
Download / Скачать

Хотите скачать бесплатно? Зарегистрируйтесь на сайте (ссылка на регистрацию). Pirat.ca - самый быстрый торрент трекер в рунете!

Как скачивать  ·   Что такое торрент  ·   Рейтинг и ограничения



Последний раз редактировалось: LPPI (2015-06-13 22:09), всего редактировалось 3 раз(а)

LPPI ®

137542

Пост 09-Июн-2015 17:36 (спустя 2 дня 6 часов)

[Q] 

Добавлена 2 серия первого сезона
[Профиль]  [ЛС] 

LPPI ®

137542

Пост 11-Июн-2015 16:16 (спустя 1 день 22 часа)

[Q] 

Добавлена 3 серия первого сезона
[Профиль]  [ЛС] 

LPPI ®

137542

Пост 13-Июн-2015 22:09 (спустя 2 дня 5 часов)

[Q] 

Добавлена 4 серия первого сезона (Финал)
[Профиль]  [ЛС] 

Пост 16-Июн-2015 01:40 (спустя 2 дня 3 часа)

Топик был перенесен из форума Сериалы в эфире в форум Зарубежные сериалы
Андря
 
Показать сообщения:    
Ответить на тему

Текущее время: Сегодня 18:21

Часовой пояс: GMT + 4



Вы не можете начинать темы
Вы не можете отвечать на сообщения
Вы не можете редактировать свои сообщения
Вы не можете удалять свои сообщения
Вы не можете голосовать в опросах
Вы не можете прикреплять файлы к сообщениям
Вы не можете скачивать файлы

▼ Вниз