ML
     
  Уважаемый Гость!
Вы можете поддержать проект и зарегистрироваться у наших партнеров - онлайн-стратегия MyLands. При регистрации в игре Вы получите код, который сможете активировать после регистрации на pirat.ca и получить 1000 дублонов.

Ваш код:
5f4e94775bc0501caff7b254e79328d304c817d9
 
     

Власть в ночном городе / Power / Сезон: 2 / Серии: 1-10 из 10 (Джон Дэвид Коулз / John David Coles, ...) [2015 г., драма, криминал, HDTV, WEB-DL, 720p] MVO (BaibaKo) + Original (Eng) [Полный]

Ответить на тему
 
Автор
Сообщение

Пост 08-Июн-2015 11:28

[Q] 

LPPI

-Власть в ночном городе / Power- Производство: США, CBS Television Studios
Жанр: драма, криминал
Год выпуска: 2015 г.-Озвучка:
Перевод: Профессиональный (многоголосый, закадровый)
Оригинальный аудиопоток: английский-Сезон: 2
Серии: 10 из 10 серий
Продолжительность: ~ 00:50:00 мин серия-Режиссер: Джон Дэвид Коулз / John David Coles, Энтони Хемингуэй / Anthony Hemingway, Джордж Тиллман мл. / George Tillman Jr.
В ролях: Адам Хасс, Лесли Лопес, Винисиус Мачадо, Люси Уолтерс, Луис Рамос, Кэтрин Нардуччи, Шэйн Джонсон, Доминик Колон, Омари Хардвик-Описание: Продолжение криминальной драмы от исполнительного продюсера Кертиса Джексона, более известного как 50 Cent. Высшее общество не приняло «Призрака», и теперь у него есть лишь один выход - стать крупнейшим наркодельцом в США. Противостояние колумбийского картеля, нью-йоркских гангстеров и ФБР начинается. Сериал рекомендован к просмотру в бронежилете.- -Качество видео: HDTV, WEB-DL
Контейнер: MKV
Стандарт разрешения: 720p
Видео кодек: MPEG4 AVC
Аудио кодек: AC3
Видео: 1280x720 (16:9), 23.976 fps, ~2 297 Kbps
Аудио: Russian: AC3, 384 kbps, 6 ch, 48 kHz
Аудио #2: English: AC3, 384 kbps, 6 ch, 48 kHz
Cубтитры: отсутствуют-
1. Последствия
2. На улице нет друзей
3. Будто мы любая другая пара
4. Только тебе я могу доверять
5. Кто ты и кем хочешь быть
6. Почему её?
7. Ты не мужик
8. На три хода вперёд
9. Время вышло
10. Призрак мёртв
General
Unique ID : 195969247815554118081017660448474274906 (0x936E4DE3A2DA22CF86EBB154EC461C5A)
Complete name : D:\Власть в ночном городе S2 2015 HDTV720p\Power.s02e01.HDTV720p.Rus.Eng.BaibaKo.tv.mkv
Format : Matroska
Format version : Version 4 / Version 2
File size : 1.32 GiB
Duration : 1h 0mn
Overall bit rate : 3 127 Kbps
Encoded date : UTC 2015-06-08 02:19:13
Writing application : mkvmerge v7.9.0 ('Birds') 64bit
Writing library : libebml v1.3.1 + libmatroska v1.4.2
DURATION : 01:00:28.416000000
NUMBER_OF_FRAMES : 113388
NUMBER_OF_BYTES : 174163968
_STATISTICS_WRITING_APP : mkvmerge v7.9.0 ('Birds') 64bit
_STATISTICS_WRITING_DATE_UT : 2015-06-08 02:19:13
_STATISTICS_TAGS : BPS DURATION NUMBER_OF_FRAMES NUMBER_OF_BYTES
Video
ID : 1
Format : AVC
Format/Info : Advanced Video Codec
Format profile : [email protected]
Format settings, CABAC : Yes
Format settings, ReFrames : 5 frames
Codec ID : V_MPEG4/ISO/AVC
Duration : 1h 0mn
Bit rate : 2 297 Kbps
Width : 1 280 pixels
Height : 720 pixels
Display aspect ratio : 16:9
Frame rate mode : Constant
Frame rate : 23.976 fps
Color space : YUV
Chroma subsampling : 4:2:0
Bit depth : 8 bits
Scan type : Progressive
Bits/(Pixel*Frame) : 0.104
Stream size : 993 MiB (73%)
Writing library : x264 core 146 r2538 121396c
Encoding settings : cabac=1 / ref=5 / deblock=1:0:0 / analyse=0x3:0x113 / me=umh / subme=8 / psy=1 / psy_rd=1.00:0.00 / mixed_ref=1 / me_range=16 / chroma_me=1 / trellis=1 / 8x8dct=1 / cqm=0 / deadzone=21,11 / fast_pskip=1 / chroma_qp_offset=-2 / threads=18 / lookahead_threads=3 / sliced_threads=0 / nr=0 / decimate=1 / interlaced=0 / bluray_compat=0 / constrained_intra=0 / bframes=3 / b_pyramid=2 / b_adapt=2 / b_bias=0 / direct=3 / weightb=1 / open_gop=0 / weightp=2 / keyint=250 / keyint_min=23 / scenecut=40 / intra_refresh=0 / rc_lookahead=50 / rc=crf / mbtree=1 / crf=18.0 / qcomp=0.60 / qpmin=0 / qpmax=69 / qpstep=4 / ip_ratio=1.40 / aq=1:1.00
Language : English
Default : Yes
Forced : No
Color range : Limited
Matrix coefficients : BT.709
DURATION : 01:00:28.417000000
NUMBER_OF_FRAMES : 86995
NUMBER_OF_BYTES : 1068942998
_STATISTICS_WRITING_APP : mkvmerge v7.9.0 ('Birds') 64bit
_STATISTICS_WRITING_DATE_UT : 2015-06-08 02:19:13
_STATISTICS_TAGS : BPS DURATION NUMBER_OF_FRAMES NUMBER_OF_BYTES
Audio #1
ID : 2
Format : AC-3
Format/Info : Audio Coding 3
Mode extension : CM (complete main)
Format settings, Endianness : Big
Codec ID : A_AC3
Duration : 1h 0mn
Bit rate mode : Constant
Bit rate : 384 Kbps
Channel(s) : 6 channels
Channel positions : Front: L C R, Side: L R, LFE
Sampling rate : 48.0 KHz
Compression mode : Lossy
Stream size : 166 MiB (12%)
Language : Russian
Default : Yes
Forced : No
Audio #2
ID : 3
Format : AC-3
Format/Info : Audio Coding 3
Mode extension : CM (complete main)
Format settings, Endianness : Big
Codec ID : A_AC3
Duration : 1h 0mn
Bit rate mode : Constant
Bit rate : 384 Kbps
Channel(s) : 6 channels
Channel positions : Front: L C R, Side: L R, LFE
Sampling rate : 48.0 KHz
Compression mode : Lossy
Stream size : 166 MiB (12%)
Language : English
Default : No
Forced : No
-Скриншоты:---Добавлена 10 серия второго сезона- -
Download / Скачать

Хотите скачать бесплатно? Зарегистрируйтесь на сайте (ссылка на регистрацию). Pirat.ca - самый быстрый торрент трекер в рунете!

Как скачивать  ·   Что такое торрент  ·   Рейтинг и ограничения



Последний раз редактировалось: LPPI (2015-08-23 10:43), всего редактировалось 10 раз(а)

spidercola86

3249

Пост 08-Июн-2015 13:14 (спустя 1 час 45 минут)

[Q] 

Довольно высоки рейтинг, посмотрим.
[Профиль]  [ЛС] 

LPPI ®

137529

Пост 15-Июн-2015 05:10 (спустя 6 дней)

[Q] 

Добавлена 2 серия второго сезона
[Профиль]  [ЛС] 

LPPI ®

137529

Пост 24-Июн-2015 09:37 (спустя 9 дней)

[Q] 

Добавлена 3 серия (WEB-DL) второго сезона
[Профиль]  [ЛС] 

LPPI ®

137529

Пост 30-Июн-2015 16:25 (спустя 6 дней)

[Q] 

Добавлена 4 серия второго сезона
[Профиль]  [ЛС] 

LPPI ®

137529

Пост 14-Июл-2015 22:18 (спустя 14 дней)

[Q] 

Добавлена 5 серия второго сезона
[Профиль]  [ЛС] 

LPPI ®

137529

Пост 21-Июл-2015 16:25 (спустя 6 дней)

[Q] 

Добавлена 6 серия второго сезона
[Профиль]  [ЛС] 

Сумрак

1660

Пост 21-Июл-2015 17:00 (спустя 34 минуты)

[Q] 

кто скажет есть смысл смотреть ? если кто глянул отпишитесь )))

_________________
[Профиль]  [ЛС] 

Qdevil

Корсар

Пост 21-Июл-2015 18:25 (спустя 1 час 24 минуты)

[Q] 

интересный сериал, только с постелью как по мне перебор)
[Профиль]  [ЛС] 

LPPI ®

137529

Пост 30-Июл-2015 20:16 (спустя 9 дней)

[Q] 

Добавлена 7 серия второго сезона
[Профиль]  [ЛС] 

LPPI ®

137529

Пост 08-Авг-2015 23:34 (спустя 9 дней)

[Q] 

Добавлена 8 серия второго сезона
[Профиль]  [ЛС] 

EDVAR

Легенда

Пост 09-Авг-2015 20:18 (спустя 20 часов)

[Q] 

Интересный сериал, Раздающему респект!

_________________
"Как других судить-вы судьи.Как себя-вы адвокаты"
[Профиль]  [ЛС] 

LPPI ®

137529

Пост 21-Авг-2015 10:41 (спустя 11 дней)

[Q] 

Добавлена 9 серия второго сезона
[Профиль]  [ЛС] 

LPPI ®

137529

Пост 23-Авг-2015 10:43 (спустя 2 дня)

[Q] 

Добавлена 10 серия второго сезона
[Профиль]  [ЛС] 

Пост 23-Авг-2015 13:38 (спустя 2 часа 54 минуты)

Топик был перенесен из форума Сериалы в эфире в форум Зарубежные сериалы
kugesan
 

fanar

15

Пост 23-Авг-2015 16:39 (спустя 5 часов)

[Q] 

отличный сериал
[Профиль]  [ЛС] 

янка-сан

Гроза морей

Пост 18-Дек-2015 20:56 (спустя 3 месяца 26 дней)

[Q] 

очень неплох Лови бочку
[Профиль]  [ЛС] 
Показать сообщения:    
Ответить на тему

Текущее время: Сегодня 15:36

Часовой пояс: GMT + 4



Вы не можете начинать темы
Вы не можете отвечать на сообщения
Вы не можете редактировать свои сообщения
Вы не можете удалять свои сообщения
Вы не можете голосовать в опросах
Вы не можете прикреплять файлы к сообщениям
Вы не можете скачивать файлы

▼ Вниз