ML
     
  Уважаемый Гость!
Вы можете поддержать проект и зарегистрироваться у наших партнеров - онлайн-стратегия MyLands. При регистрации в игре Вы получите код, который сможете активировать после регистрации на pirat.ca и получить 1000 дублонов.

Ваш код:
11f49771fdf057c9d51610e4a0925c3b46ddb655
 
     

Убийство первой степени / Murder in the First / Сезон: 2 / Серии: 1-12 из 12 (Джесси Бокко / Jesse Bochco, ...) [2015 г., драма, криминал, детектив, WEB-DLRip] MVO (BaibaKo) + Original (Eng) [Полный]

Ответить на тему
 
Автор
Сообщение

Пост 11-Июн-2015 17:21

[Q] 

LPPI

-Убийство первой степени / Murder in the First- Производство: США, TNT Originals, Turner Original Productions
Жанр: драма, криминал, детектив
Год выпуска: 2015 г.-Озвучка:
Перевод: Профессиональный (многоголосый, закадровый)
Оригинальный аудиопоток: английский-Сезон: 2
Серии: 12 из 12 серий
Продолжительность: ~ 00:42:00 мин серия-Режиссер: Джесси Бокко / Jesse Bochco, Эллисон Андерс / Allison Anders, Реджинальд Хадлин / Reginald Hudlin
В ролях: Иэн Энтони Дэйл, Карри Грэм, Кэтлин Робертсон, Том Фелтон, Тэй Диггз, Мими Кирклэнд, Джейми МакШейн, Марисса Армихо, Брианна Дэвис, Камилль Бальзамо, Питер Онорати-Описание: В центре сюжета сериала, действие которого разворачивается в Сан-Франциско, находятся детективы Терри Сигрейв и Хилди Маллиган, которые расследуют обычное убийство наркомана, однако в ходе развития дела выходят на генерального директора компании по разработке передовых технологий Эрика Бланта.- -Качество видео: WEB-DLRip
Контейнер: AVI
Видео кодек: XviD
Аудио кодек: MP3
Видео: 720x400 (1.80:1), 23.976 fps, XviD build 50 ~1501 kbps avg, 0.22 bit/pixel
Аудио: Russian: 48 kHz, MPEG Layer 3, 2 ch, ~192.00 kbps avg
Аудио #2: English: 48 kHz, MPEG Layer 3, 2 ch, ~192.00 kbps avg
Cубтитры: отсутствуют-
1. Twenty-Fifteen
2. Schizofrenzy
3. Blue on Blue
4. My Suger Walls
5. The McCormack Mulligan
6. Oh, Mexico
7. State of the Union
8. Out of the Shadows
9. Bruja Blanca
10. Nothing But the Truth
11. Down Time
12. Number Thirty Nine
General
Complete name : D:\Убийство первой степени 2015 S2 WEB-DLRip\Murder.in.the.First.s02e01.WEB-DLRip.XviD.Rus.Eng.BaibaKo.tv.avi
Format : AVI
Format/Info : Audio Video Interleave
File size : 569 MiB
Duration : 41mn 50s
Overall bit rate : 1 901 Kbps
Writing application : VirtualDubMod 1.5.10.2 (build 2540/release)
Writing library : VirtualDubMod build 2540/release
Video
ID : 0
Format : MPEG-4 Visual
Format profile : Advanced [email protected]
Format settings, BVOP : 2
Format settings, QPel : No
Format settings, GMC : No warppoints
Format settings, Matrix : Default (H.263)
Codec ID : XVID
Codec ID/Hint : XviD
Duration : 41mn 50s
Bit rate : 1 503 Kbps
Width : 720 pixels
Height : 400 pixels
Display aspect ratio : 16:9
Frame rate : 23.976 fps
Color space : YUV
Chroma subsampling : 4:2:0
Bit depth : 8 bits
Scan type : Progressive
Compression mode : Lossy
Bits/(Pixel*Frame) : 0.218
Stream size : 450 MiB (79%)
Writing library : XviD 1.2.1 (UTC 2008-12-04)
Audio #1
ID : 1
Format : MPEG Audio
Format version : Version 1
Format profile : Layer 3
Mode : Joint stereo
Mode extension : MS Stereo
Codec ID : 55
Codec ID/Hint : MP3
Duration : 41mn 50s
Bit rate mode : Constant
Bit rate : 192 Kbps
Channel(s) : 2 channels
Sampling rate : 48.0 KHz
Compression mode : Lossy
Stream size : 57.5 MiB (10%)
Alignment : Aligned on interleaves
Interleave, duration : 42 ms (1.00 video frame)
Interleave, preload duratio : 504 ms
Audio #2
ID : 2
Format : MPEG Audio
Format version : Version 1
Format profile : Layer 3
Mode : Joint stereo
Mode extension : MS Stereo
Codec ID : 55
Codec ID/Hint : MP3
Duration : 41mn 50s
Bit rate mode : Constant
Bit rate : 192 Kbps
Channel(s) : 2 channels
Sampling rate : 48.0 KHz
Compression mode : Lossy
Stream size : 57.5 MiB (10%)
Alignment : Aligned on interleaves
Interleave, duration : 42 ms (1.00 video frame)
Interleave, preload duratio : 504 ms
-Скриншоты:---Добавлена 12 серия второго сезона- -
Download / Скачать

Хотите скачать бесплатно? Зарегистрируйтесь на сайте (ссылка на регистрацию). Pirat.ca - самый быстрый торрент трекер в рунете!

Как скачивать  ·   Что такое торрент  ·   Рейтинг и ограничения



Последний раз редактировалось: LPPI (2015-09-03 15:05), всего редактировалось 9 раз(а)

LPPI ®

137546

Пост 18-Июн-2015 10:34 (спустя 6 дней)

[Q] 

Добавлена 2 серия второго сезона
[Профиль]  [ЛС] 

LPPI ®

137546

Пост 24-Июн-2015 20:11 (спустя 6 дней)

[Q] 

Добавлена 3 серия второго сезона
[Профиль]  [ЛС] 

LPPI ®

137546

Пост 02-Июл-2015 09:25 (спустя 7 дней)

[Q] 

Добавлена 4 серия второго сезона
[Профиль]  [ЛС] 

LPPI ®

137546

Пост 14-Июл-2015 12:01 (спустя 12 дней)

[Q] 

Добавлена 5 серия второго сезона
[Профиль]  [ЛС] 

LPPI ®

137546

Пост 17-Июл-2015 20:14 (спустя 3 дня)

[Q] 

Добавлена 6 серия второго сезона
[Профиль]  [ЛС] 

LPPI ®

137546

Пост 26-Июл-2015 21:50 (спустя 9 дней)

[Q] 

Добавлена 7 серия второго сезона
[Профиль]  [ЛС] 

LPPI ®

137546

Пост 07-Авг-2015 23:35 (спустя 12 дней)

[Q] 

Добавлена 8 и 9 серия второго сезона
[Профиль]  [ЛС] 

LPPI ®

137546

Пост 21-Авг-2015 09:53 (спустя 13 дней)

[Q] 

Добавлена 10 серия второго сезона
[Профиль]  [ЛС] 

LPPI ®

137546

Пост 31-Авг-2015 11:52 (спустя 10 дней)

[Q] 

Добавлена 11 серия второго сезона
[Профиль]  [ЛС] 

LPPI ®

137546

Пост 03-Сен-2015 15:05 (спустя 3 дня)

[Q] 

Добавлена 12 серия второго сезона
[Профиль]  [ЛС] 

Victorsalata

Корсар

Пост 08-Сен-2015 10:22 (спустя 4 дня)

[Q] 

Смотрю с удовольствием. Спасибо.
[Профиль]  [ЛС] 
Показать сообщения:    
Ответить на тему

Текущее время: Сегодня 03:07

Часовой пояс: GMT + 4



Вы не можете начинать темы
Вы не можете отвечать на сообщения
Вы не можете редактировать свои сообщения
Вы не можете удалять свои сообщения
Вы не можете голосовать в опросах
Вы не можете прикреплять файлы к сообщениям
Вы не можете скачивать файлы

▼ Вниз