ML
     
  Уважаемый Гость!
Вы можете поддержать проект и зарегистрироваться у наших партнеров - онлайн-стратегия MyLands. При регистрации в игре Вы получите код, который сможете активировать после регистрации на pirat.ca и получить 1000 дублонов.

Ваш код:
11f49771fdf057c9d51610e4a0925c3b46ddb655
 
     

Тёмная материя / Dark Matter / Сезон: 1 / Серии: 1-13 из 13 (Рон Мерфи / Ron Murphy, ...) [2015 г., фантастика, триллер, драма, HDTV, WEB-DL, 720p] MVO (BaibaKo) + Original (Eng) [Полный]

Ответить на тему
 
Автор
Сообщение

Пост 14-Июн-2015 09:09

[Q] 

LPPI

-Тёмная материя / Dark Matter- Производство: Канада
Жанр: фантастика, триллер, драма
Год выпуска: 2015 г.-Озвучка:
Перевод: Профессиональный (многоголосый, закадровый)
Оригинальный аудиопоток: английский-Сезон: 1
Серии: 13 из 13 серий
Продолжительность: ~ 00:42:00 мин серия-Режиссер: Рон Мерфи / Ron Murphy, Т.Дж. Скотт / T.J. Scott, Паоло Барзмен / Paolo Barzman
В ролях: Марк Бендавид, Мелисса О’Нил, Энтони Лемке, Алекс Маллари мл., Джоделль Ферланд, Роджер Р. Кросс, Зои Палмер, Дэвид Хьюлетт, Джессика Сайпос, Расселл Юэнь-Описание: Экипаж заброшенного космического корабля пробуждается от анабиоза, без воспоминаний о том, кто они и как они поднялись на борт. Сталкиваясь с угрозами на каждом шагу, они должны работать вместе, чтобы выжить. Их путешествие наполнено местью, предательством и скрытыми тайнами.- -Качество видео: HDTV, WEB-DL
Контейнер: MKV
Стандарт разрешения: 720p
Видео кодек: MPEG4 AVC
Аудио кодек: AC3
Видео: 1280x720 (16:9), 23.976 fps, ~2 459 Kbps
Аудио: Russian: AC3, 384 kbps, 6 ch, 48 kHz
Аудио #2: English: AC3, 384 kbps, 6 ch, 48 kHz
Cубтитры: отсутствуют-
General
Unique ID : 208071233250755701768959450026440274370 (0x9C890FD69A30004D98B73BC6A0D631C2)
Complete name : D:\Тёмная материя S1 2015 HDTV720p\Dark.Matter.s01e01.HDTV720p.Rus.Eng.BaibaKo.tv.mkv
Format : Matroska
Format version : Version 4 / Version 2
File size : 1 014 MiB
Duration : 43mn 9s
Overall bit rate : 3 285 Kbps
Encoded date : UTC 2015-06-13 22:33:06
Writing application : mkvmerge v7.9.0 ('Birds') 64bit
Writing library : libebml v1.3.1 + libmatroska v1.4.2
DURATION : 00:43:09.824000000
NUMBER_OF_FRAMES : 80932
NUMBER_OF_BYTES : 124311552
_STATISTICS_WRITING_APP : mkvmerge v7.9.0 ('Birds') 64bit
_STATISTICS_WRITING_DATE_UT : 2015-06-13 22:33:06
_STATISTICS_TAGS : BPS DURATION NUMBER_OF_FRAMES NUMBER_OF_BYTES
Video
ID : 1
Format : AVC
Format/Info : Advanced Video Codec
Format profile : [email protected]
Format settings, CABAC : Yes
Format settings, ReFrames : 5 frames
Codec ID : V_MPEG4/ISO/AVC
Duration : 43mn 9s
Bit rate : 2 459 Kbps
Width : 1 280 pixels
Height : 720 pixels
Display aspect ratio : 16:9
Frame rate mode : Constant
Frame rate : 23.976 fps
Color space : YUV
Chroma subsampling : 4:2:0
Bit depth : 8 bits
Scan type : Progressive
Bits/(Pixel*Frame) : 0.111
Stream size : 757 MiB (75%)
Writing library : x264 core 146 r2538 121396c
Encoding settings : cabac=1 / ref=5 / deblock=1:0:0 / analyse=0x3:0x113 / me=umh / subme=8 / psy=1 / psy_rd=1.00:0.00 / mixed_ref=1 / me_range=16 / chroma_me=1 / trellis=1 / 8x8dct=1 / cqm=0 / deadzone=21,11 / fast_pskip=1 / chroma_qp_offset=-2 / threads=12 / lookahead_threads=2 / sliced_threads=0 / nr=0 / decimate=1 / interlaced=0 / bluray_compat=0 / constrained_intra=0 / bframes=3 / b_pyramid=2 / b_adapt=2 / b_bias=0 / direct=3 / weightb=1 / open_gop=0 / weightp=2 / keyint=250 / keyint_min=23 / scenecut=40 / intra_refresh=0 / rc_lookahead=50 / rc=crf / mbtree=1 / crf=18.0 / qcomp=0.60 / qpmin=0 / qpmax=69 / qpstep=4 / ip_ratio=1.40 / aq=1:1.00
Default : No
Forced : No
Color range : Limited
Matrix coefficients : BT.709
Audio #1
ID : 2
Format : AC-3
Format/Info : Audio Coding 3
Mode extension : CM (complete main)
Format settings, Endianness : Big
Codec ID : A_AC3
Duration : 43mn 9s
Bit rate mode : Constant
Bit rate : 384 Kbps
Channel(s) : 6 channels
Channel positions : Front: L C R, Side: L R, LFE
Sampling rate : 48.0 KHz
Compression mode : Lossy
Stream size : 119 MiB (12%)
Language : Russian
Default : Yes
Forced : No
Audio #2
ID : 3
Format : AC-3
Format/Info : Audio Coding 3
Mode extension : CM (complete main)
Format settings, Endianness : Big
Codec ID : A_AC3
Duration : 43mn 9s
Bit rate mode : Constant
Bit rate : 384 Kbps
Channel(s) : 6 channels
Channel positions : Front: L C R, Side: L R, LFE
Sampling rate : 48.0 KHz
Compression mode : Lossy
Stream size : 119 MiB (12%)
Language : English
Default : No
Forced : No
-Скриншоты:---Добавлена 13 серия первого сезона- -
Download / Скачать

Хотите скачать бесплатно? Зарегистрируйтесь на сайте (ссылка на регистрацию). Pirat.ca - самый быстрый торрент трекер в рунете!

Как скачивать  ·   Что такое торрент  ·   Рейтинг и ограничения



Последний раз редактировалось: LPPI (2015-08-31 13:42), всего редактировалось 13 раз(а)

Пост 14-Июн-2015 10:39 (спустя 1 час 30 минут)

Топик был перенесен из форума Зарубежные сериалы (Трюм) в форум Сериалы в эфире
Андря
 

Operkosm

Матрос

Пост 14-Июн-2015 14:22 (спустя 5 часов)

[Q] 

Нажимаю "Скачать торрент" и выскакивает белая страница с надписью (V_v). Что происходит?
[Профиль]  [ЛС] 

platon18

Гроза морей

Пост 15-Июн-2015 14:52 (спустя 1 день)

[Q] 

нормально все качается
[Профиль]  [ЛС] 

Сумрак

1660

Пост 15-Июн-2015 21:01 (спустя 6 часов)

[Q] 

ну что же первый отзыв ))) фильм заинтриговал оригинальностью хотя начало не очень ... думаю если не будут тянуть резину то смотреть рекомендую любителям фантастики типа Андромеды жду следующих серий )))) LPPI еще хотим , а пока держи Лови бочку

_________________
[Профиль]  [ЛС] 

Operkosm

Матрос

Пост 16-Июн-2015 23:37 (спустя 1 день 2 часа)

[Q] 

Оказывается, надо было качать из другого браузера, тогда всё нормально скачалось.
Интригующее начало. Когда следующая серия?
[Профиль]  [ЛС] 

LPPI ®

137546

Пост 22-Июн-2015 11:14 (спустя 5 дней)

[Q] 

Добавлена 2 серия первого сезона
[Профиль]  [ЛС] 

LPPI ®

137546

Пост 28-Июн-2015 21:08 (спустя 6 дней)

[Q] 

Добавлена 3 серия первого сезона
[Профиль]  [ЛС] 

Tapac84

Корсар

Пост 29-Июн-2015 02:09 (спустя 5 часов)

[Q] 

такие описания пошли, что я просто в шоке... 5 слов, 3 слова, кто меньше...
[Профиль]  [ЛС] 

malefik

Корсар

Пост 29-Июн-2015 15:39 (спустя 13 часов)

[Q] 

это конечно не звездные войны....но посмотреть можно.
на мой взгляд 6 из 10
[Профиль]  [ЛС] 

Сумрак

1660

Пост 01-Июл-2015 01:22 (спустя 1 день 9 часов)

[Q] 

что же глянул я 2 и 3 серию вердикт кхм... один.... смотреть можно .. чем то пошел по сюжету от светлячка и андромеды есть своя оригинальная лепта - лишенные бандюки памяти и типа они добрые кстати на мой взгляд это и интригует в сериале ... кто же тот гад который их памяти лишил, да и сюжет вроде не тянется в развитии сразу к делу перешли во второй серии ( а зад командирши реально хороший сам с удовольствием глядел ag ).. если не испортят нытьем , как загубили часть серий даже звездных врат и остальных шедевров ...... то смотреть буду и далее
Добавлено спустя 4 минуты 5 секунд:
LPPI - ждемс 4 )))))

_________________
[Профиль]  [ЛС] 

LPPI ®

137546

Пост 05-Июл-2015 11:19 (спустя 4 дня)

[Q] 

Добавлена 4 серия первого сезона
[Профиль]  [ЛС] 

zvezda_2s

Корсар

Пост 05-Июл-2015 16:02 (спустя 4 часа)

[Q] 

Любителям "Светлячка" смотреть, хотя и слабже.
[Профиль]  [ЛС] 

TERMOS

Легенда

12058

Пост 06-Июл-2015 00:26 (спустя 8 часов)

[Q] 

Перенесите сюжет сериала (без космических наворочек) в век так 18-й. И будет просто комедия. ag Стивенсон в сторонке нервно курит...

_________________
[Профиль]  [ЛС] 

LPPI ®

137546

Пост 13-Июл-2015 06:11 (спустя 7 дней)

[Q] 

Добавлена 5 серия первого сезона
[Профиль]  [ЛС] 

LPPI ®

137546

Пост 20-Июл-2015 10:19 (спустя 7 дней)

[Q] 

Добавлена 6 серия первого сезона
[Профиль]  [ЛС] 

LPPI ®

137546

Пост 27-Июл-2015 00:10 (спустя 6 дней)

[Q] 

Добавлена 7 серия первого сезона
[Профиль]  [ЛС] 

LPPI ®

137546

Пост 04-Авг-2015 21:36 (спустя 8 дней)

[Q] 

Добавлена 8 серия первого сезона
[Профиль]  [ЛС] 

LPPI ®

137546

Пост 10-Авг-2015 09:14 (спустя 5 дней)

[Q] 

Добавлена 9 серия первого сезона
[Профиль]  [ЛС] 

LPPI ®

137546

Пост 17-Авг-2015 16:06 (спустя 7 дней)

[Q] 

Добавлена 10 серия первого сезона
[Профиль]  [ЛС] 

LPPI ®

137546

Пост 25-Авг-2015 11:05 (спустя 7 дней)

[Q] 

Добавлена 11 серия первого сезона
[Профиль]  [ЛС] 

LPPI ®

137546

Пост 30-Авг-2015 19:17 (спустя 5 дней)

[Q] 

Добавлена 12 серия первого сезона
[Профиль]  [ЛС] 

LPPI ®

137546

Пост 31-Авг-2015 13:43 (спустя 18 часов)

[Q] 

Добавлена 13 серия первого сезона
[Профиль]  [ЛС] 

Незнайка

Флибустьер

Пост 31-Авг-2015 23:01 (спустя 9 часов)

[Q] 

Супер!
[Профиль]  [ЛС] 

Alex-dix

Флибустьер

Пост 19-Ноя-2015 17:35 (спустя 2 месяца 18 дней)

[Q] 

Нормальный сериал! Лови бочку Супер!
[Профиль]  [ЛС] 

янка-сан

Гроза морей

Пост 17-Дек-2015 20:35 (спустя 28 дней)

[Q] 

Лови бочку глянем
[Профиль]  [ЛС] 
Показать сообщения:    
Ответить на тему

Текущее время: Сегодня 03:12

Часовой пояс: GMT + 4



Вы не можете начинать темы
Вы не можете отвечать на сообщения
Вы не можете редактировать свои сообщения
Вы не можете удалять свои сообщения
Вы не можете голосовать в опросах
Вы не можете прикреплять файлы к сообщениям
Вы не можете скачивать файлы

▼ Вниз