ML
     
  Уважаемый Гость!
Вы можете поддержать проект и зарегистрироваться у наших партнеров - онлайн-стратегия MyLands. При регистрации в игре Вы получите код, который сможете активировать после регистрации на pirat.ca и получить 1000 дублонов.

Ваш код:
9cfe162481db953a6549f32179d7b3900b8b8643
 
     

Кремниевая долина / Silicon Valley / Сезон: 2 / Серии: 1-10 (10) (Майк Джадж / Mike Judge) [2015 г., комедия, HDTVRip, 720p] DVO (Кубик в Кубе) + Original (Eng)

Ответить на тему
 
Автор
Сообщение

Пост 17-Июн-2015 21:32

[Q] 

TERMOS

Легенда

-Кремниевая долина / Silicon Valley
«Where Everyone Wants To Be An Icon»
(2 сезон)
-- Производство: США | HBO
Жанр: комедия
Год выпуска: 2015 г.
Продолжительность: 10x ~00:30:00
Перевод: Профессиональный (двухголосый, закадровый) [Кубик в Кубе]
Оригинальный аудиопоток: английский
Режиссер: Майк Джадж / Mike Judge-В ролях: Аманда Крю, Эли Мави, Джэйк Бродер, Энди Бакли, Порша Коулмэн, Джимми Оуянг, Остин Абрамс, Victor Achkeev, Джилл Е. Александр, Бобак Бахтиари-Описание: История о группе гиков, готовящих к запуску собственные стартапы в высокотехнологичном центре Сан-Франциско.
Главные герои сериала бесплатно проживают в доме местного миллионера, но взамен им придётся отдать по 10% прибыли от будущих проектов.
- -Качество видео: HDTVRip
Контейнер: MKV
Стандарт разрешения: 720p
Видео кодек: H.264/AVC
Аудио кодек: AC3
Видео: 1280x714 at 23.976 fps, ~4200 kbps avg
Аудио: Russian: 48 kHz, AC3, 3/2 (L,C,R,l,r) + LFE ch, ~384.00 kbps avg |Двухголосый закадровый, Кубик в Кубе|
Аудио #2: English: 48 kHz, AC3, 3/2 (L,C,R,l,r) + LFE ch, ~384.00 kbps avg
Cубтитры: отсутствуют
01. Sand Hill Shuffle / Перестановка на Сэнд Хилл
02. Runaway Devaluation / Провальная девальвация
03. Bad Money / Фальшивые деньги
04. The Lady / Леди
05. Server Space / Место на сервере
06. Homicide / Убийство
07. Adult Content / Контент для взрослых
08. White Hat/Black Hat / Герой и злодей
09. Binding Arbitration / Обязательный арбитраж
10. Two Days of the Condor / Два дня Кондора
Код:
General
Unique ID                   : 232836794345050746383592509367063848296 (0xAF2ABC45B1566814B21EF1B414CAA568)
Complete name               : T:\Uploads\Pirat.Ca\Silicon Valley - Season 02 (2015)[720p.HDTVRip]\Silicon.Valley.S02E01.720p.HDTVRip.Rus.Eng.mkv
Format                      : Matroska
Format version              : Version 4 / Version 2
File size                   : 1.08 GiB
Duration                    : 30mn 1s
Overall bit rate            : 5 129 Kbps
Movie name                  : Silicon Valley s02e01 (Sand Hill Shuffle)
Encoded date                : UTC 2015-04-15 20:26:46
Writing application         : mkvmerge v6.7.0 ('Back to the Ground') 64bit built on Jan  8 2014 15:10:52
Writing library             : libebml v1.3.0 + libmatroska v1.4.1
Video
ID                          : 1
Format                      : AVC
Format/Info                 : Advanced Video Codec
Format profile              : [email protected]
Format settings, CABAC      : Yes
Format settings, ReFrames   : 9 frames
Codec ID                    : V_MPEG4/ISO/AVC
Duration                    : 30mn 1s
Bit rate                    : 4 259 Kbps
Width                       : 1 280 pixels
Height                      : 714 pixels
Display aspect ratio        : 16:9
Frame rate mode             : Constant
Frame rate                  : 23.976 fps
Color space                 : YUV
Chroma subsampling          : 4:2:0
Bit depth                   : 8 bits
Scan type                   : Progressive
Bits/(Pixel*Frame)          : 0.194
Stream size                 : 914 MiB (83%)
Writing library             : x264 core 144 r2525 40bb568
Encoding settings           : cabac=1 / ref=9 / deblock=1:-3:-3 / analyse=0x3:0x133 / me=umh / subme=10 / psy=1 / psy_rd=1.00:0.00 / mixed_ref=1 / me_range=24 / chroma_me=1 / trellis=2 / 8x8dct=1 / cqm=0 / deadzone=21,11 / fast_pskip=1 / chroma_qp_offset=-2 / threads=12 / lookahead_threads=2 / sliced_threads=0 / nr=0 / decimate=1 / interlaced=0 / bluray_compat=0 / constrained_intra=0 / bframes=8 / b_pyramid=2 / b_adapt=2 / b_bias=0 / direct=3 / weightb=1 / open_gop=0 / weightp=2 / keyint=250 / keyint_min=23 / scenecut=40 / intra_refresh=0 / rc=crf / mbtree=0 / crf=16.5 / qcomp=0.60 / qpmin=0 / qpmax=69 / qpstep=4 / ip_ratio=1.40 / pb_ratio=1.30 / aq=1:0.80
Language                    : English
Default                     : Yes
Forced                      : No
Audio #1
ID                          : 2
Format                      : AC-3
Format/Info                 : Audio Coding 3
Mode extension              : CM (complete main)
Format settings, Endianness : Big
Codec ID                    : A_AC3
Duration                    : 30mn 1s
Bit rate mode               : Constant
Bit rate                    : 384 Kbps
Channel(s)                  : 6 channels
Channel positions           : Front: L C R, Side: L R, LFE
Sampling rate               : 48.0 KHz
Bit depth                   : 16 bits
Compression mode            : Lossy
Stream size                 : 82.4 MiB (7%)
Title                       : Kvk 5.1
Language                    : Russian
Default                     : Yes
Forced                      : No
Audio #2
ID                          : 3
Format                      : AC-3
Format/Info                 : Audio Coding 3
Mode extension              : CM (complete main)
Format settings, Endianness : Big
Codec ID                    : A_AC3
Duration                    : 30mn 1s
Bit rate mode               : Constant
Bit rate                    : 384 Kbps
Channel(s)                  : 6 channels
Channel positions           : Front: L C R, Side: L R, LFE
Sampling rate               : 48.0 KHz
Bit depth                   : 16 bits
Compression mode            : Lossy
Stream size                 : 82.4 MiB (7%)
Title                       : English 5.1
Language                    : English
Default                     : No
Forced                      : No
Download / Скачать

Хотите скачать бесплатно? Зарегистрируйтесь на сайте (ссылка на регистрацию). Pirat.ca - самый быстрый торрент трекер в рунете!

Как скачивать  ·   Что такое торрент  ·   Рейтинг и ограничения



Последний раз редактировалось: TERMOS (2015-06-17 21:34), всего редактировалось 1 раз

TERMOS ®

Легенда

12039

Пост 17-Июн-2015 21:33 (спустя 1 минута)

[Q] 

Внимание! В релизе присутствует ненормативная лексика!

_________________
[Профиль]  [ЛС] 

mishanya___

21468

Пост 17-Июн-2015 21:36 (спустя 2 минуты)

[Q] 

Лучшая озвучка этого сериала
Раздающему респект!
[Профиль]  [ЛС] 

TERMOS ®

Легенда

12039

Пост 17-Июн-2015 21:56 (спустя 20 минут)

[Q] 

mishanya___, а то! ag

_________________
[Профиль]  [ЛС] 
Показать сообщения:    
Ответить на тему

Текущее время: Сегодня 06:06

Часовой пояс: GMT + 4



Вы не можете начинать темы
Вы не можете отвечать на сообщения
Вы не можете редактировать свои сообщения
Вы не можете удалять свои сообщения
Вы не можете голосовать в опросах
Вы не можете прикреплять файлы к сообщениям
Вы не можете скачивать файлы

▼ Вниз