ML
     
  Уважаемый Гость!
Вы можете поддержать проект и зарегистрироваться у наших партнеров - онлайн-стратегия MyLands. При регистрации в игре Вы получите код, который сможете активировать после регистрации на pirat.ca и получить 1000 дублонов.

Ваш код:
e6008d9811a0b6a1393c3dc51ecd7bc35637bc21
 
     

Вызов / Defiance / Сезон: 3 / Серии: 1-13 из 13 (Майкл Нанкин / Michael Nankin) [2015 г., фантастика, боевик, драма, WEB-DL, 720p] MVO (BaibaKo) + Original (Eng) [Полный]

Ответить на тему
 
Автор
Сообщение

Пост 18-Июн-2015 10:17

[Q] 

LPPI

-Вызов / Defiance- Производство: США, Five & Dime Productions, Universal Cable Productions
Жанр: фантастика, боевик, драма
Год выпуска: 2015 г.-Озвучка:
Перевод: Профессиональный (многоголосый, закадровый)
Оригинальный аудиопоток: английский-Сезон: 3
Серии: 13 из 13 серий
Продолжительность: ~ 00:43:00 мин серия-Режиссер: Майкл Нанкин / Michael Nankin
В ролях: Грант Боулер, Джули Бенц, Дьюшэйн Уильямс, Тони Карран, Тренна Китинг, Стефани Леонидас, Джейми Мюррэй, Николь Муньос, Джессика Николс, Джастин Рэйн-Описание: "Вызов" - это проект, объединивший онлайн игру и телесериал. Это не просто экранизация игры, и даже не игра, созданная по сюжету сериала, это слияние игровой индустрии и телевидения в одно целое. Зрители смогут сами повлиять на развитие сюжета при помощи игры, создав персонажа, который в дальнейшем может оказаться на экранах телевизоров.
Сюжет сериала "Вызов" рассказывает о Земле, какой она стала после Бледных войн: противостояния землян и прилетевших "на поселение" инопланетян, чья система бинарных солнц превратилась в сверхновую. После того, как потери с обеих сторон достигли ужасных размеров и на Землю по ошибке попали терраформирующие машины инопланетян, горстка солдат осознала бессмысленность взаимного истребления и бросает вызов своим командирам. Цепная реакция привела к перемирию между землянами и вотанцами. В начале сериала со времен объявления перемирия прошло 15 лет. Бывший солдат Джозеф Нолан со своей приемной дочкой-инопланетянкой Айриссой попадает в некогда родной Сент-Луис, и вынужденно становится защитником местных жителей на посту шерифа. Ему предстоит жить в городе, ныне носящем гордое название Вызов, населенном представителями 6 рас, и бороться с силами, пытающимися стереть его с лица Земли.- -Качество видео: WEB-DL
Контейнер: MKV
Стандарт разрешения: 720p
Видео кодек: MPEG4 AVC
Аудио кодек: AC3
Видео: 1280x720 (16:9), 23.976 fps, ~3 959 Kbps, 0.179 bit/pix
Аудио: Russian: AC3, 384 kbps, 6 ch, 48 kHz
Аудио #2: English: AC3, 384 kbps, 6 ch, 48 kHz
Cубтитры: отсутствуют-
1. Мир у наших ног
2. Последний единорог
3. Сломанная ветка
4. Спёртый воздух
5. Волны истории
6. Яблоко от яблони
7. Прелесть нашего оружия
8. Меня зовут Дейтак Тарр и я пришел убить тебя
9. Остинато в белом
10. Когда сумерки скрывают небо
11. Лик демона явился мне
12. Пробуждение
13. Мёртвых заместят живые
General
Unique ID : 254418792686280589473936207514331547500 (0xBF6746F1A8E755DAA79AC1FF6DAC876C)
Complete name : C:\Users\Ivan\Desktop\Вызов S3 2015 WEB-DL720p\Defiance.s03e01-02.HD720p.WEB-DL.Rus.Eng.BaibaKo.tv.mkv
Format : Matroska
Format version : Version 4 / Version 2
File size : 2.80 GiB
Duration : 1h 23mn
Overall bit rate : 4 823 Kbps
Encoded date : UTC 2015-06-17 09:07:41
Writing application : mkvmerge v7.9.0 ('Birds') 64bit
Writing library : libebml v1.3.1 + libmatroska v1.4.2
DURATION : 01:23:10.080000000
NUMBER_OF_FRAMES : 155940
NUMBER_OF_BYTES : 239523840
_STATISTICS_WRITING_APP : mkvmerge v7.9.0 ('Birds') 64bit
_STATISTICS_WRITING_DATE_UT : 2015-06-17 09:07:41
_STATISTICS_TAGS : BPS DURATION NUMBER_OF_FRAMES NUMBER_OF_BYTES
Video
ID : 1
Format : AVC
Format/Info : Advanced Video Codec
Format profile : [email protected]
Format settings, CABAC : No
Format settings, ReFrames : 2 frames
Codec ID : V_MPEG4/ISO/AVC
Duration : 1h 23mn
Bit rate : 3 959 Kbps
Width : 1 280 pixels
Height : 720 pixels
Display aspect ratio : 16:9
Frame rate mode : Constant
Frame rate : 23.976 fps
Color space : YUV
Chroma subsampling : 4:2:0
Bit depth : 8 bits
Scan type : Progressive
Bits/(Pixel*Frame) : 0.179
Stream size : 2.30 GiB (82%)
Language : English
Default : Yes
Forced : No
Color range : Limited
Color primaries : BT.709
Transfer characteristics : BT.709
Matrix coefficients : BT.709
Audio #1
ID : 2
Format : AC-3
Format/Info : Audio Coding 3
Mode extension : CM (complete main)
Format settings, Endianness : Big
Codec ID : A_AC3
Duration : 1h 23mn
Bit rate mode : Constant
Bit rate : 384 Kbps
Channel(s) : 6 channels
Channel positions : Front: L C R, Side: L R, LFE
Sampling rate : 48.0 KHz
Compression mode : Lossy
Stream size : 228 MiB (8%)
Language : Russian
Default : Yes
Forced : No
Audio #2
ID : 3
Format : AC-3
Format/Info : Audio Coding 3
Mode extension : CM (complete main)
Format settings, Endianness : Big
Codec ID : A_AC3
Duration : 1h 23mn
Bit rate mode : Constant
Bit rate : 384 Kbps
Channel(s) : 6 channels
Channel positions : Front: L C R, Side: L R, LFE
Sampling rate : 48.0 KHz
Compression mode : Lossy
Stream size : 228 MiB (8%)
Language : English
Default : No
Forced : No
-Скриншоты:---Добавлена 13 серия третьего сезона- -
Download / Скачать

Хотите скачать бесплатно? Зарегистрируйтесь на сайте (ссылка на регистрацию). Pirat.ca - самый быстрый торрент трекер в рунете!

Как скачивать  ·   Что такое торрент  ·   Рейтинг и ограничения



Последний раз редактировалось: LPPI (2015-08-31 12:47), всего редактировалось 11 раз(а)

LPPI ®

137543

Пост 18-Июн-2015 10:18 (спустя 11 секунд)

[Q] 

Добавлена 1 и 2 серия третьего сезона
[Профиль]  [ЛС] 

platon18

Гроза морей

Пост 18-Июн-2015 14:48 (спустя 4 часа)

[Q] 

а где скачать 1 и 2 сезоны?
[Профиль]  [ЛС] 

LPPI ®

137543

Пост 18-Июн-2015 14:57 (спустя 8 минут)

[Q] 

686682а где скачать 1 и 2 сезоны?
Непокорная Земля / Defiance (Сезон 1, полный, 12 серий) [LostFilm] (Майкл Нанкин / Michael Nankin ...) [2013 г.] (Фантастика, Боевик, Драма ...) [WEB-DLRip] (MVO)
Непокорная Земля / Defiance (Сезон 2 / Полный / Серии: 13 из 13) (Майкл Нанкин / Michael Nankin, ...) [2014 г., фантастика, боевик, драма, ..., WEB-DLRip] MVO (Lostfilm)
[Профиль]  [ЛС] 

LPPI ®

137543

Пост 22-Июн-2015 11:51 (спустя 3 дня)

[Q] 

Добавлена 3 серия третьего сезона
[Профиль]  [ЛС] 

LPPI ®

137543

Пост 01-Июл-2015 07:26 (спустя 8 дней)

[Q] 

Добавлена 4 серия третьего сезона
[Профиль]  [ЛС] 

LPPI ®

137543

Пост 08-Июл-2015 12:46 (спустя 7 дней)

[Q] 

Добавлена 5 серия третьего сезона
[Профиль]  [ЛС] 

a_barat

Гроза морей

3249

Пост 09-Июл-2015 19:36 (спустя 1 день 6 часов)

[Q] 

А почему "Вызов", а не привычная уже всем "Непокорная Земля"??
Кто такое название придумал?
Fuck
Чуть не скачал...

_________________
This message represents an official view of the voices in my head af
[Профиль]  [ЛС] 

LPPI ®

137543

Пост 16-Июл-2015 17:10 (спустя 6 дней)

[Q] 

Добавлена 6 серия третьего сезона
[Профиль]  [ЛС] 

LPPI ®

137543

Пост 04-Авг-2015 20:43 (спустя 19 дней)

[Q] 

Добавлена 7 и 8 серия третьего сезона
[Профиль]  [ЛС] 

LPPI ®

137543

Пост 10-Авг-2015 17:22 (спустя 5 дней)

[Q] 

Добавлена 9 серия третьего сезона
[Профиль]  [ЛС] 

LPPI ®

137543

Пост 12-Авг-2015 22:22 (спустя 2 дня 4 часа)

[Q] 

Добавлена 10 серия третьего сезона
[Профиль]  [ЛС] 

LPPI ®

137543

Пост 17-Авг-2015 11:51 (спустя 4 дня)

[Q] 

Добавлена 11 серия третьего сезона
[Профиль]  [ЛС] 

LPPI ®

137543

Пост 26-Авг-2015 09:15 (спустя 8 дней)

[Q] 

Добавлена 12 серия третьего сезона
[Профиль]  [ЛС] 

LPPI ®

137543

Пост 31-Авг-2015 12:47 (спустя 5 дней)

[Q] 

Добавлена 13 серия третьего сезона
[Профиль]  [ЛС] 
Показать сообщения:    
Ответить на тему

Текущее время: Сегодня 02:01

Часовой пояс: GMT + 4



Вы не можете начинать темы
Вы не можете отвечать на сообщения
Вы не можете редактировать свои сообщения
Вы не можете удалять свои сообщения
Вы не можете голосовать в опросах
Вы не можете прикреплять файлы к сообщениям
Вы не можете скачивать файлы

▼ Вниз