ML
     
  Уважаемый Гость!
Вы можете поддержать проект и зарегистрироваться у наших партнеров - онлайн-стратегия MyLands. При регистрации в игре Вы получите код, который сможете активировать после регистрации на pirat.ca и получить 1000 дублонов.

Ваш код:
73640f24f8a0f579e128ea7346fd2db2b1009143
 
     

Тиран / Tyrant / Сезон: 2 / Серии: 1-12 из 12 (Дэвид Йэтс / David Yates) [2015 г., боевик, триллер, драма, WEB-DL, 1080p] MVO (BaibaKo) + Original (Eng) [Полный]

Ответить на тему
 
Автор
Сообщение

Пост 18-Июн-2015 11:10

[Q] 

LPPI

-Тиран / Tyrant- Производство: США, Fox 21, Keshet Broadcasting, Teakwood Lane Productions
Жанр: боевик, триллер, драма
Год выпуска: 2015 г.-Озвучка:
Перевод: Профессиональный (многоголосый, закадровый)
Оригинальный аудиопоток: английский-Сезон: 2
Серии: 12 из 12 серий
Продолжительность: ~ 00:45:00 мин серия-Режиссер: Дэвид Йэтс / David Yates
В ролях: Адам Рэйнер, Софи Тэйлор Али, Моран Атиас, Рой Авигдори, Мохаммад Бакри, Ашраф Бархом, Амир Бутрус, Сибулла Дин, Мехди Дехби-Описание: Сюжет Тирана разворачивается в самой политически неустойчивой и взрывоопасной точке нашего мира — на Ближнем Востоке, где, как известно, сосредоточено множество военных конфликтов (от гражданской войны в Сирии до бесконечного арабо-израильского противостояния). Главный герой Бассам «Барри» Аль Фаед, сын ближневосточного диктатора, разумеется, вымышленного арабского государства Балади (хотя особенно внимательные зрители узнают в кадре ландшафты Израиля). Он жил своей собственной жизнью в Лос-Анджелесе около 20 лет, женился на американке. Но судьба заставила его вернуться на родную землю.- -Качество видео: WEB-DL
Контейнер: MKV
Стандарт разрешения: 1080p
Видео кодек: MPEG4 AVC
Аудио кодек: AC3
Видео: 1920x1080 (16:9), 23.976 fps, ~4 462 Kbps
Аудио: Russian: AC3, 384 kbps, 6 ch, 48 kHz
Аудио #2: English: AC3, 384 kbps, 6 ch, 48 kHz
Cубтитры: отсутствуют-
1. Печать Каина
2. Перст судьбы
3. Вера
4. Дом построенный на песке
5. Гадюка во дворце
6. Другой брат
7. Воля божья
8. Отцы и дети
9. Он - инсайдер, она - аутсайдер
10. Самобичевание
11. Буря в пустыне
12. Мир в Абуддине
General
Unique ID : 211548011871897845046580200461275597279 (0x9F26AA42499BA1548B624429FBF189DF)
Complete name : C:\Users\Ivan\Desktop\Тиран S2 2015 WEB-DL1080p BaibaKo\Tyrant.s02e01.HD1080p.WEB-DL.Rus.Eng.BaibaKo.tv.mkv
Format : Matroska
Format version : Version 4 / Version 2
File size : 1.74 GiB
Duration : 46mn 35s
Overall bit rate : 5 336 Kbps
Encoded date : UTC 2015-06-17 20:00:51
Writing application : mkvmerge v7.9.0 ('Birds') 64bit
Writing library : libebml v1.3.1 + libmatroska v1.4.2
DURATION : 00:46:35.904000000
NUMBER_OF_FRAMES : 87372
NUMBER_OF_BYTES : 134203392
_STATISTICS_WRITING_APP : mkvmerge v7.9.0 ('Birds') 64bit
_STATISTICS_WRITING_DATE_UT : 2015-06-17 20:00:51
_STATISTICS_TAGS : BPS DURATION NUMBER_OF_FRAMES NUMBER_OF_BYTES
Video
ID : 1
Format : AVC
Format/Info : Advanced Video Codec
Format profile : [email protected]
Format settings, CABAC : Yes
Format settings, ReFrames : 4 frames
Codec ID : V_MPEG4/ISO/AVC
Duration : 46mn 35s
Bit rate : 4 462 Kbps
Width : 1 920 pixels
Height : 1 080 pixels
Display aspect ratio : 16:9
Frame rate mode : Constant
Frame rate : 23.976 fps
Color space : YUV
Chroma subsampling : 4:2:0
Bit depth : 8 bits
Scan type : Progressive
Bits/(Pixel*Frame) : 0.090
Stream size : 1.45 GiB (84%)
Language : English
Default : No
Forced : No
Color range : Limited
Color primaries : BT.709
Transfer characteristics : BT.709
Matrix coefficients : BT.709
Audio #1
ID : 2
Format : AC-3
Format/Info : Audio Coding 3
Mode extension : CM (complete main)
Format settings, Endianness : Big
Codec ID : A_AC3
Duration : 46mn 35s
Bit rate mode : Constant
Bit rate : 384 Kbps
Channel(s) : 6 channels
Channel positions : Front: L C R, Side: L R, LFE
Sampling rate : 48.0 KHz
Compression mode : Lossy
Stream size : 128 MiB (7%)
Language : Russian
Default : Yes
Forced : No
Audio #2
ID : 3
Format : AC-3
Format/Info : Audio Coding 3
Mode extension : CM (complete main)
Format settings, Endianness : Big
Codec ID : A_AC3
Duration : 46mn 35s
Bit rate mode : Constant
Bit rate : 384 Kbps
Channel(s) : 6 channels
Channel positions : Front: L C R, Side: L R, LFE
Sampling rate : 48.0 KHz
Compression mode : Lossy
Stream size : 128 MiB (7%)
Language : English
Default : No
Forced : No
-Скриншоты:---Добавлена 12 серия второго сезона-Доступно благодаря группе: Не забываем говорить -
Download / Скачать

Хотите скачать бесплатно? Зарегистрируйтесь на сайте (ссылка на регистрацию). Pirat.ca - самый быстрый торрент трекер в рунете!

Как скачивать  ·   Что такое торрент  ·   Рейтинг и ограничения



Последний раз редактировалось: LPPI (2015-09-03 15:37), всего редактировалось 11 раз(а)

LPPI ®

137535

Пост 25-Июн-2015 19:20 (спустя 7 дней)

[Q] 

Добавлена 2 серия второго сезона
[Профиль]  [ЛС] 

demal

Штурман

Пост 28-Июн-2015 03:19 (спустя 2 дня 7 часов)

[Q] 

спасибо,отличный серал
[Профиль]  [ЛС] 

emauzzo

Морской Волк

12

Пост 28-Июн-2015 15:43 (спустя 12 часов)

[Q] 

Почему ссылки на IMDB и Кинопоиск неправильные, или это я туплю?
[Профиль]  [ЛС] 

LPPI ®

137535

Пост 02-Июл-2015 10:49 (спустя 3 дня)

[Q] 

Добавлена 3 серия второго сезона
[Профиль]  [ЛС] 

LPPI ®

137535

Пост 09-Июл-2015 08:00 (спустя 6 дней)

[Q] 

Добавлена 4 серия второго сезона
[Профиль]  [ЛС] 

LPPI ®

137535

Пост 16-Июл-2015 10:50 (спустя 7 дней)

[Q] 

Добавлена 5 серия второго сезона
[Профиль]  [ЛС] 

LPPI ®

137535

Пост 23-Июл-2015 23:41 (спустя 7 дней)

[Q] 

Добавлена 6 серия второго сезона
[Профиль]  [ЛС] 

LPPI ®

137535

Пост 30-Июл-2015 09:44 (спустя 6 дней)

[Q] 

Добавлена 7 серия второго сезона
[Профиль]  [ЛС] 

LPPI ®

137535

Пост 06-Авг-2015 16:19 (спустя 7 дней)

[Q] 

Добавлена 8 серия второго сезона
[Профиль]  [ЛС] 

alex_dry

Гроза морей

Пост 08-Авг-2015 22:32 (спустя 2 дня 6 часов)

[Q] 

Стоит начинать смотреть?
[Профиль]  [ЛС] 

LPPI ®

137535

Пост 13-Авг-2015 10:43 (спустя 4 дня)

[Q] 

Добавлена 9 серия второго сезона
[Профиль]  [ЛС] 

LPPI ®

137535

Пост 20-Авг-2015 20:01 (спустя 7 дней)

[Q] 

Добавлена 10 серия второго сезона
[Профиль]  [ЛС] 

LPPI ®

137535

Пост 27-Авг-2015 12:06 (спустя 6 дней)

[Q] 

Добавлена 11 серия второго сезона
[Профиль]  [ЛС] 

LPPI ®

137535

Пост 03-Сен-2015 15:37 (спустя 7 дней)

[Q] 

Добавлена 12 серия второго сезона
[Профиль]  [ЛС] 
Показать сообщения:    
Ответить на тему

Текущее время: Сегодня 22:33

Часовой пояс: GMT + 4



Вы не можете начинать темы
Вы не можете отвечать на сообщения
Вы не можете редактировать свои сообщения
Вы не можете удалять свои сообщения
Вы не можете голосовать в опросах
Вы не можете прикреплять файлы к сообщениям
Вы не можете скачивать файлы

▼ Вниз