ML
     
  Уважаемый Гость!
Вы можете поддержать проект и зарегистрироваться у наших партнеров - онлайн-стратегия MyLands. При регистрации в игре Вы получите код, который сможете активировать после регистрации на pirat.ca и получить 1000 дублонов.

Ваш код:
fcd618d94adc1456bccbde5047c9cd0930e4ae4d
 
     

Мистер Робот / Mr. Robot / Сезон: 1 / Серии: 1-10 (10) (Нильс Арден Оплев / Niels Arden Oplev) [2015 г., драма, криминал, HDTV/WEB-DL, 1080p] MVO (LostFilm) + Original (Eng) + Sub (Eng)

Ответить на тему
 
Автор
Сообщение

Пост 19-Июн-2015 14:23

[Q] 

TERMOS

Легенда

-Мистер Робот / Mr. Robot
«They will never let go»
(1 сезон)
-- Производство: США
Жанр: драма, криминал
Год выпуска: 2015 г.
Продолжительность: 10х ~01:00:00
Перевод: Профессиональный (многоголосый, закадровый) [LostFilm]
Оригинальный аудиопоток: английский
Режиссер: Нильс Арден Оплев / Niels Arden Oplev-В ролях: Рами Малек, Карли Чаикин, Портия Даблдэй, Мартин Волстром, Кристиан Слэйтер, Майкл Гилл, Бен Раппапорт, Аарон Такахаси, Фрэнки Шоу, Самрат Чакрабарти-Описание: История молодого программиста Эллиота, страдающего диссоциальным расстройством личности и решившего, что единственный приемлемый для него способ взаимодействия с людьми — это профессия хакера. Таким образом, он быстро оказывается в том самом месте, где пересекаются интересы его работодателя — фирмы, занимающейся кибербезопасностью, — и подпольных организаций, которые пытаются его завербовать с целью обрушения самых могучих американских корпораций.
- - -1-я серия:
Качество видео: HDTV
Источник: DIMENSION
Контейнер: MKV
Стандарт разрешения: 1080p
Видео кодек: H.264/AVC
Аудио кодек: AC3
Видео: 1920x1080 at 23.976 fps, ~16,3 Mbps avg
Аудио: Russian: 48 kHz, AC3, 3/2 (L,C,R,l,r) + LFE ch, ~640.00 kbps avg |Многоголосый закадровый, LostFilm|
Аудио #2: English: 48 kHz, AC3, 3/2 (L,C,R,l,r) + LFE ch, ~640.00 kbps avg
Cубтитры: английские
2-10 серии:
Качество видео: WEB-DL
Источник: Amazon Instant Video / iTunes
Контейнер: MKV
Стандарт разрешения: 1080p
Видео кодек: H.264/AVC
Аудио кодек: AC3
Видео: 1920x1080 at 23.976 fps, ~10000/5000 kbps avg
Аудио: Russian: 48 kHz, AC3, 3/2 (L,C,R,l,r) + LFE ch, ~384.00 kbps avg |Многоголосый закадровый, LostFilm|
Аудио #2: English: 48 kHz, AC3, 3/2 (L,C,R,l,r) + LFE ch, ~384.00 kbps avg
Cубтитры: английские

01. eps1.0_hellofriend.mov
02: eps1.1_ones-and-zer0es.mpeg
03: eps1.2_d3bug.mkv
04: eps1.3_da3m0ns.mp4
05: eps1.4_3xpl0its.wmv
06: eps1.5_br4ve-trave1er.asf
07: eps1.6_v1ew-s0urce.flv
08: eps1.7_wh1ter0se.m4v
09: eps1.8_m1rr0r1ng.qt
10: eps1.9_zer0-day.avi
Код:
General
Unique ID                   : 231156310967345738825794699937664635990 (0xADE7160B79DB328BAA89C2440B0A9456)
Complete name               : Y:\Uploads\Pirat.Ca\Mr.Robot - Season 01(2015)[1080p.HDTV]\Mr.Robot.S01E01.HELLOFRIEND.MOV.1080p.HDTV.Rus.Eng.HDCLUB.mkv
Format                      : Matroska
Format version              : Version 4 / Version 2
File size                   : 8.15 GiB
Duration                    : 1h 4mn
Overall bit rate            : 18.0 Mbps
Movie name                  : Mr. Robot 1x01 (2015)
Encoded date                : UTC 2015-06-09 12:05:12
Writing application         : mkvmerge v7.8.0 ('River Man') 64bit built on Mar 27 2015 16:31:37
Writing library             : libebml v1.3.1 + libmatroska v1.4.2
DURATION                    : 01:04:18.338000000
NUMBER_OF_FRAMES            : 988
NUMBER_OF_BYTES             : 33668
_STATISTICS_WRITING_APP     : mkvmerge v7.8.0 ('River Man') 64bit built on Mar 27 2015 16:31:37
_STATISTICS_WRITING_DATE_UT : 2015-06-09 12:05:12
_STATISTICS_TAGS            : BPS DURATION NUMBER_OF_FRAMES NUMBER_OF_BYTES
Video
ID                          : 1
Format                      : AVC
Format/Info                 : Advanced Video Codec
Format profile              : [email protected]
Format settings, CABAC      : Yes
Format settings, ReFrames   : 4 frames
Codec ID                    : V_MPEG4/ISO/AVC
Duration                    : 1h 4mn
Bit rate                    : 16.3 Mbps
Width                       : 1 920 pixels
Height                      : 1 080 pixels
Display aspect ratio        : 16:9
Frame rate mode             : Constant
Frame rate                  : 23.976 fps
Color space                 : YUV
Chroma subsampling          : 4:2:0
Bit depth                   : 8 bits
Scan type                   : Progressive
Bits/(Pixel*Frame)          : 0.329
Stream size                 : 7.41 GiB (91%)
Title                       : Mr. Robot 1x01: HELLOFRIEND.MOV
Writing library             : x264 core 146 r2538 121396c
Encoding settings           : cabac=1 / ref=4 / deblock=1:-2:-2 / analyse=0x3:0x133 / me=umh / subme=11 / psy=1 / psy_rd=1.00:0.00 / mixed_ref=1 / me_range=32 / chroma_me=1 / trellis=2 / 8x8dct=1 / cqm=0 / deadzone=21,11 / fast_pskip=1 / chroma_qp_offset=-2 / threads=18 / lookahead_threads=2 / sliced_threads=0 / nr=0 / decimate=1 / interlaced=0 / bluray_compat=0 / constrained_intra=0 / bframes=5 / b_pyramid=2 / b_adapt=2 / b_bias=0 / direct=3 / weightb=1 / open_gop=0 / weightp=2 / keyint=250 / keyint_min=23 / scenecut=40 / intra_refresh=0 / rc_lookahead=60 / rc=crf / mbtree=1 / crf=17.0 / qcomp=0.60 / qpmin=0 / qpmax=69 / qpstep=4 / ip_ratio=1.40 / aq=1:1.00
Language                    : English
Default                     : Yes
Forced                      : No
Matrix coefficients         : BT.709
Color range                 : Limited
DURATION                    : 01:04:52.226000000
NUMBER_OF_FRAMES            : 93320
NUMBER_OF_BYTES             : 8126050000
_STATISTICS_WRITING_APP     : mkvmerge v7.8.0 ('River Man') 64bit built on Mar 27 2015 16:31:37
_STATISTICS_WRITING_DATE_UT : 2015-06-09 12:05:12
_STATISTICS_TAGS            : BPS DURATION NUMBER_OF_FRAMES NUMBER_OF_BYTES
Audio #1
ID                          : 2
Format                      : AC-3
Format/Info                 : Audio Coding 3
Mode extension              : CM (complete main)
Format settings, Endianness : Big
Codec ID                    : A_AC3
Duration                    : 1h 4mn
Bit rate mode               : Constant
Bit rate                    : 640 Kbps
Channel(s)                  : 6 channels
Channel positions           : Front: L C R, Side: L R, LFE
Sampling rate               : 48.0 KHz
Bit depth                   : 16 bits
Compression mode            : Lossy
Stream size                 : 297 MiB (4%)
Title                       : LostFilm
Language                    : Russian
Default                     : Yes
Forced                      : No
Audio #2
ID                          : 3
Format                      : AC-3
Format/Info                 : Audio Coding 3
Mode extension              : CM (complete main)
Format settings, Endianness : Big
Codec ID                    : A_AC3
Duration                    : 1h 4mn
Bit rate mode               : Constant
Bit rate                    : 640 Kbps
Channel(s)                  : 6 channels
Channel positions           : Front: L C R, Side: L R, LFE
Sampling rate               : 48.0 KHz
Bit depth                   : 16 bits
Compression mode            : Lossy
Stream size                 : 297 MiB (4%)
Language                    : English
Default                     : No
Forced                      : No
Text
ID                          : 4
Format                      : UTF-8
Codec ID                    : S_TEXT/UTF8
Codec ID/Info               : UTF-8 Plain Text
Language                    : English
Default                     : No
Forced                      : No
Download / Скачать

Хотите скачать бесплатно? Зарегистрируйтесь на сайте (ссылка на регистрацию). Pirat.ca - самый быстрый торрент трекер в рунете!

Как скачивать  ·   Что такое торрент  ·   Рейтинг и ограничения



Последний раз редактировалось: TERMOS (2015-09-06 19:43), всего редактировалось 5 раз(а)

TERMOS ®

Легенда

12061

Пост 19-Июн-2015 14:26 (спустя 3 минуты)

[Q] 

Затравка не плохая. Эта раздача для владельцев больших диагоналей, любителей HD. Практически BD. ad

_________________
[Профиль]  [ЛС] 

Андря

8419

Пост 19-Июн-2015 20:50 (спустя 6 часов)

[Q] 

однако российский сайт на скрине многое даёт понять о переводчиках в америцэ. bk

_________________
Като Тешекика
[Профиль]  [ЛС] 

TERMOS ®

Легенда

12061

Пост 20-Июн-2015 02:58 (спустя 6 часов)

[Q] 

Андря,
А у Вас были какие-то сомнения?))

_________________
[Профиль]  [ЛС] 

TERMOS ®

Легенда

12061

Пост 04-Июл-2015 08:31 (спустя 14 дней)

[Q] 

Добавлена вторая серия. Название папки и 1-й серии изменены! Обновите торрент-файл!

_________________
[Профиль]  [ЛС] 

TERMOS ®

Легенда

12061

Пост 11-Июл-2015 20:25 (спустя 7 дней)

[Q] 

Заменена 2-я серия, добавлена 3-я серия. Обновите торрент-файл!

_________________
[Профиль]  [ЛС] 

Tosha

110

Пост 11-Июл-2015 20:31 (спустя 5 минут)

[Q] 

мне понравилось

_________________
Выполняем ремонт любой сложности!
Бытовая техника, мясорубки, кофе-машины, парогенераторы, моющие системы, оверлоки и пуговичные машины, а так же бытовые и промышленные швейные машины.
РЕМОНТ КОМПЬЮТЕРОВ И НОУТБУКОВ

ООО "Гарант" http://GARANTREM.RU
[Профиль]  [ЛС] 

maxvel911

Морской Волк

Пост 14-Июл-2015 19:50 (спустя 2 дня 23 часа)

[Q] 

Чето напркомания какаято.
[Профиль]  [ЛС] 

TERMOS ®

Легенда

12061

Пост 19-Июл-2015 20:02 (спустя 5 дней)

[Q] 

Добавлена 4-я серия. Обновите торрент-файл!

_________________
[Профиль]  [ЛС] 

Tosha

110

Пост 20-Июл-2015 14:48 (спустя 18 часов)

[Q] 

692112Добавлена 4-я серия. Обновите торрент-файл!
Ждем продолжения rum

_________________
Выполняем ремонт любой сложности!
Бытовая техника, мясорубки, кофе-машины, парогенераторы, моющие системы, оверлоки и пуговичные машины, а так же бытовые и промышленные швейные машины.
РЕМОНТ КОМПЬЮТЕРОВ И НОУТБУКОВ

ООО "Гарант" http://GARANTREM.RU
[Профиль]  [ЛС] 

TERMOS ®

Легенда

12061

Пост 25-Авг-2015 11:07 (спустя 1 месяц 4 дня)

[Q] 

Заменена 4-я серия, добавлены 5-9 серии. Обновите торрент файл!

_________________
[Профиль]  [ЛС] 

Yello

Морской Волк

16

Пост 25-Авг-2015 22:38 (спустя 11 часов)

[Q] 

не качается, пришлось смотреть ХД версию в худшем качестве
[Профиль]  [ЛС] 

TERMOS ®

Легенда

12061

Пост 06-Сен-2015 19:45 (спустя 11 дней)

[Q] 

Добавлена 10-я серия. От iTunes. Финал сезона! Обновите торрент-файл!

_________________
[Профиль]  [ЛС] 

Пост 06-Сен-2015 21:31 (спустя 1 час 46 минут)

Топик был перенесен из форума Сериалы в эфире в форум Зарубежные сериалы
kugesan
 

bioclown

Корсар

Пост 15-Окт-2015 17:49 (спустя 1 месяц 8 дней)

[Q] 

Посоветовали данный сериал, заценим. Должно вкатить
[Профиль]  [ЛС] 
Показать сообщения:    
Ответить на тему

Текущее время: Сегодня 12:52

Часовой пояс: GMT + 4



Вы не можете начинать темы
Вы не можете отвечать на сообщения
Вы не можете редактировать свои сообщения
Вы не можете удалять свои сообщения
Вы не можете голосовать в опросах
Вы не можете прикреплять файлы к сообщениям
Вы не можете скачивать файлы

▼ Вниз