ML
     
  Уважаемый Гость!
Вы можете поддержать проект и зарегистрироваться у наших партнеров - онлайн-стратегия MyLands. При регистрации в игре Вы получите код, который сможете активировать после регистрации на pirat.ca и получить 1000 дублонов.

Ваш код:
a01a592a88af5f9996a6d1baec61b18a1769954d
 
     

Нереальное шоу / UnReal / Сезон: 1 / Серии: 1-10 из 10 (Ута Бризвитц / Uta Briesewitz, ...) [2015 г., драма, WEB-DLRip] MVO (BaibaKo) + Original (Eng) [Полный]

Ответить на тему
 
Автор
Сообщение

Пост 21-Июн-2015 20:27

[Q] 

LPPI

-Нереальное шоу / UnReal- Производство: США, Wieden+Kennedy Entertainment
Жанр: драма
Год выпуска: 2015 г.-Озвучка:
Перевод: Профессиональный (многоголосый, закадровый)
Оригинальный аудиопоток: английский-Сезон: 1
Серии: 10 из 10 серий
Продолжительность: ~ 00:42:00 мин серия-Режиссер: Ута Бризвитц / Uta Briesewitz, Питер О’Фаллон / Peter O'Fallon, Лев Л. Спиро / Lev L. Spiro
В ролях: Шири Эпплби, Констанс Зиммер, Джоанна Э. Брэдди, Женевьев Бюкнер, Бреннан Эллиотт, Бонита Фридериси, Натали Келли, Джош Келли, Фредди Строма, Джеффри Бауэр-Чепман и др.-Описание: Настоящий хаос окружает съемки любовных реалити-шоу. За кулисами может оказаться всё гораздо интереснее, чем в эфире. В погоне за рейтингами приходится всячески манипулировать конкурсантами, чтобы те выдали необходимый «материал» для шоу. А продюсер может уволить кого угодно за малейший недочёт.- -Качество видео: WEB-DLRip
Контейнер: AVI
Видео кодек: XviD
Аудио кодек: AC3
Видео: 720x400 (1.80:1), 23.976 fps, XviD build 50 ~1501 kbps avg, 0.22 bit/pixel
Аудио: Russian: 48 kHz, MPEG Layer 3, 2 ch, ~192.00 kbps avg
Аудио #2: English: 48 kHz, MPEG Layer 3, 2 ch, ~192.00 kbps avg
Cубтитры: отсутствуют-
1. Return
2. Relapse
3. Mother
4. Wife
5. Truth
6. Fly
7. Savior
8. Two
9. Princess
10. Future
General
Complete name : C:\Users\Ivan\Desktop\Нереальное шоу S1 2015 WEB-DLRip\UnREAL.s01e01.WEB-DLRip.XviD.Rus.Eng.BaibaKo.tv.avi
Format : AVI
Format/Info : Audio Video Interleave
File size : 609 MiB
Duration : 44mn 48s
Overall bit rate : 1 900 Kbps
Writing application : VirtualDubMod 1.5.10.2 (build 2540/release)
Writing library : VirtualDubMod build 2540/release
Video
ID : 0
Format : MPEG-4 Visual
Format profile : Advanced [email protected]
Format settings, BVOP : 2
Format settings, QPel : No
Format settings, GMC : No warppoints
Format settings, Matrix : Default (H.263)
Codec ID : XVID
Codec ID/Hint : XviD
Duration : 44mn 48s
Bit rate : 1 502 Kbps
Width : 720 pixels
Height : 400 pixels
Display aspect ratio : 16:9
Frame rate : 23.976 fps
Color space : YUV
Chroma subsampling : 4:2:0
Bit depth : 8 bits
Scan type : Progressive
Compression mode : Lossy
Bits/(Pixel*Frame) : 0.218
Stream size : 481 MiB (79%)
Writing library : XviD 1.2.1 (UTC 2008-12-04)
Audio #1
ID : 1
Format : MPEG Audio
Format version : Version 1
Format profile : Layer 3
Mode : Joint stereo
Mode extension : MS Stereo
Codec ID : 55
Codec ID/Hint : MP3
Duration : 44mn 48s
Bit rate mode : Constant
Bit rate : 192 Kbps
Channel(s) : 2 channels
Sampling rate : 48.0 KHz
Compression mode : Lossy
Stream size : 61.5 MiB (10%)
Alignment : Aligned on interleaves
Interleave, duration : 42 ms (1.00 video frame)
Interleave, preload duratio : 504 ms
Writing library : LAME3.98.4
Audio #2
ID : 2
Format : MPEG Audio
Format version : Version 1
Format profile : Layer 3
Mode : Joint stereo
Mode extension : MS Stereo
Codec ID : 55
Codec ID/Hint : MP3
Duration : 44mn 48s
Bit rate mode : Constant
Bit rate : 192 Kbps
Channel(s) : 2 channels
Sampling rate : 48.0 KHz
Compression mode : Lossy
Stream size : 61.5 MiB (10%)
Alignment : Aligned on interleaves
Interleave, duration : 42 ms (1.00 video frame)
Interleave, preload duratio : 504 ms
Writing library : LAME3.98
-Скриншоты:---Добавлена 9 и 10 серия первого сезона-Доступно благодаря группе: Не забываем говорить -
Download / Скачать

Хотите скачать бесплатно? Зарегистрируйтесь на сайте (ссылка на регистрацию). Pirat.ca - самый быстрый торрент трекер в рунете!

Как скачивать  ·   Что такое торрент  ·   Рейтинг и ограничения



Последний раз редактировалось: LPPI (2015-08-25 11:34), всего редактировалось 3 раз(а)

LPPI ®

137543

Пост 26-Июн-2015 11:58 (спустя 4 дня)

[Q] 

Добавлена 2 серия первого сезона
[Профиль]  [ЛС] 

LPPI ®

137543

Пост 05-Авг-2015 12:26 (спустя 1 месяц 9 дней)

[Q] 

Добавлены с 3 по 6 серии первого сезона
[Профиль]  [ЛС] 

kostua005

Шкипер

Пост 06-Авг-2015 12:02 (спустя 23 часа)

[Q] 

Кто нибуть смотрел??? на сколько тянет??
[Профиль]  [ЛС] 

LPPI ®

137543

Пост 21-Авг-2015 11:43 (спустя 14 дней)

[Q] 

Добавлена 7 и 8 серия первого сезона
[Профиль]  [ЛС] 

LPPI ®

137543

Пост 25-Авг-2015 11:34 (спустя 3 дня)

[Q] 

Добавлена 9 и 10 серия первого сезона
[Профиль]  [ЛС] 

Пост 25-Авг-2015 12:33 (спустя 58 минут)

Топик был перенесен из форума Сериалы в эфире в форум Зарубежные сериалы
kugesan
 
Показать сообщения:    
Ответить на тему

Текущее время: Сегодня 09:45

Часовой пояс: GMT + 4



Вы не можете начинать темы
Вы не можете отвечать на сообщения
Вы не можете редактировать свои сообщения
Вы не можете удалять свои сообщения
Вы не можете голосовать в опросах
Вы не можете прикреплять файлы к сообщениям
Вы не можете скачивать файлы

▼ Вниз