ML
     
  Уважаемый Гость!
Вы можете поддержать проект и зарегистрироваться у наших партнеров - онлайн-стратегия MyLands. При регистрации в игре Вы получите код, который сможете активировать после регистрации на pirat.ca и получить 1000 дублонов.

Ваш код:
fcd618d94adc1456bccbde5047c9cd0930e4ae4d
 
     

Игроки (Футболисты) / Ballers / Сезон: 1 / Серии: 1-10 из 10 (Питер Берг / Peter Berg) [2015 г., драма, комедия, HDTV, 720p] MVO (BaibaKo) + Original (Eng) [Полный]

Ответить на тему
 
Автор
Сообщение

Пост 23-Июн-2015 15:23

[Q] 

LPPI

-Игроки (Футболисты) / Ballers- Производство: США, Leverage Management
Жанр: драма, комедия
Год выпуска: 2015 г.-Озвучка:
Перевод: Профессиональный (многоголосый, закадровый)
ВНИМАНИЕ! В сериале присутствует ненормативная лексика
Оригинальный аудиопоток: английский-Сезон: 1
Серии: 10 из 10 серий
Продолжительность: ~ 00:30:00 мин серия-Режиссер: Питер Берг / Peter Berg
В ролях: Дуэйн Джонсон, Джасмин Саймон, Донован Картер, Роб Кордри, Трой Гэрити, Омар Бенсон Миллер, Джон Дэвид Вашингтон, Анабель Акоста, Дуле Хилл, Ариэль Кеббел-Описание: Новый совместный проект Дуэйна «Скалы» Джонсона, Марка Уолберга и режиссера «Хэнкока» Питера Берга - комедийная драма НВО о жизни профессиональных игроков в американский футбол. Они зарабатывают миллионы, на них молятся фанаты, их показывают в новостях. Но помимо многочасовых тренировок, пятничных игр и вспышек фотокамер у них есть друзья, семьи и, конечно, проблемы – почти такие же, как у обычных людей. С девушкой помириться - это, знаете ли, не тачдаун оформить.- -Качество видео: HDTV
Контейнер: MKV
Стандарт разрешения: 720p
Видео кодек: MPEG4 AVC
Аудио кодек: AC3
Видео: 1280x720 (16:9), 23.976 fps, ~3 547 Kbps
Аудио: Russian: AC3, 384 kbps, 6 ch, 48 kHz
Аудио #2: English: AC3, 384 kbps, 6 ch, 48 kHz
Cубтитры: отсутствуют-
1. Пилот
2. Ставки повышаются
3. Ближе к цели
4. Головы полетят
5. Точите мачете
6. Everything Is Everything
7. Ends
8. Gaslighting
9. Head-On
10. Фламинго
General
Unique ID : 170270437217232266862923799022172687221 (0x8018E4B3C4DE070687EDEFDDB56CCB75)
Complete name : C:\Users\Ivan\Desktop\Ballers.s01e01.HDTV720p.Rus.Eng.BaibaKo.tv.mkv
Format : Matroska
Format version : Version 4 / Version 2
File size : 950 MiB
Duration : 30mn 12s
Overall bit rate : 4 395 Kbps
Encoded date : UTC 2015-06-23 08:39:40
Writing application : mkvmerge v7.9.0 ('Birds') 64bit
Writing library : libebml v1.3.1 + libmatroska v1.4.2
DURATION : 00:30:12.736000000
NUMBER_OF_FRAMES : 56648
NUMBER_OF_BYTES : 87011328
_STATISTICS_WRITING_APP : mkvmerge v7.9.0 ('Birds') 64bit
_STATISTICS_WRITING_DATE_UT : 2015-06-23 08:39:40
_STATISTICS_TAGS : BPS DURATION NUMBER_OF_FRAMES NUMBER_OF_BYTES
Video
ID : 1
Format : AVC
Format/Info : Advanced Video Codec
Format profile : [email protected]
Format settings, CABAC : Yes
Format settings, ReFrames : 5 frames
Codec ID : V_MPEG4/ISO/AVC
Duration : 30mn 12s
Bit rate : 3 547 Kbps
Width : 1 280 pixels
Height : 720 pixels
Display aspect ratio : 16:9
Frame rate mode : Constant
Frame rate : 23.976 fps
Color space : YUV
Chroma subsampling : 4:2:0
Bit depth : 8 bits
Scan type : Progressive
Bits/(Pixel*Frame) : 0.161
Stream size : 765 MiB (81%)
Writing library : x264 core 146 r2538 121396c
Encoding settings : cabac=1 / ref=5 / deblock=1:0:0 / analyse=0x3:0x113 / me=umh / subme=8 / psy=1 / psy_rd=1.00:0.00 / mixed_ref=1 / me_range=16 / chroma_me=1 / trellis=1 / 8x8dct=1 / cqm=0 / deadzone=21,11 / fast_pskip=1 / chroma_qp_offset=-2 / threads=24 / lookahead_threads=4 / sliced_threads=0 / nr=0 / decimate=1 / interlaced=0 / bluray_compat=0 / constrained_intra=0 / bframes=3 / b_pyramid=2 / b_adapt=2 / b_bias=0 / direct=3 / weightb=1 / open_gop=0 / weightp=2 / keyint=250 / keyint_min=23 / scenecut=40 / intra_refresh=0 / rc_lookahead=50 / rc=crf / mbtree=1 / crf=18.0 / qcomp=0.60 / qpmin=0 / qpmax=69 / qpstep=4 / ip_ratio=1.40 / aq=1:1.00
Default : No
Forced : No
Color range : Limited
Matrix coefficients : BT.709
Audio #1
ID : 2
Format : AC-3
Format/Info : Audio Coding 3
Mode extension : CM (complete main)
Format settings, Endianness : Big
Codec ID : A_AC3
Duration : 30mn 12s
Bit rate mode : Constant
Bit rate : 384 Kbps
Channel(s) : 6 channels
Channel positions : Front: L C R, Side: L R, LFE
Sampling rate : 48.0 KHz
Compression mode : Lossy
Stream size : 83.0 MiB (9%)
Language : Russian
Default : Yes
Forced : No
Audio #2
ID : 3
Format : AC-3
Format/Info : Audio Coding 3
Mode extension : CM (complete main)
Format settings, Endianness : Big
Codec ID : A_AC3
Duration : 30mn 12s
Bit rate mode : Constant
Bit rate : 384 Kbps
Channel(s) : 6 channels
Channel positions : Front: L C R, Side: L R, LFE
Sampling rate : 48.0 KHz
Compression mode : Lossy
Stream size : 83.0 MiB (9%)
Language : English
Default : No
Forced : No
-Скриншоты:---Добавлена 10 серия первого сезона-Доступно благодаря группе: Не забываем говорить -
Download / Скачать

Хотите скачать бесплатно? Зарегистрируйтесь на сайте (ссылка на регистрацию). Pirat.ca - самый быстрый торрент трекер в рунете!

Как скачивать  ·   Что такое торрент  ·   Рейтинг и ограничения



Последний раз редактировалось: LPPI (2015-08-26 08:12), всего редактировалось 8 раз(а)

LPPI ®

137546

Пост 01-Июл-2015 20:39 (спустя 8 дней)

[Q] 

Добавлена 2 серия первого сезона
[Профиль]  [ЛС] 

LPPI ®

137546

Пост 08-Июл-2015 13:49 (спустя 6 дней)

[Q] 

Добавлена 3 серия первого сезона
[Профиль]  [ЛС] 

LPPI ®

137546

Пост 15-Июл-2015 20:56 (спустя 7 дней)

[Q] 

Добавлена 4 серия первого сезона
[Профиль]  [ЛС] 

LPPI ®

137546

Пост 24-Июл-2015 00:25 (спустя 8 дней)

[Q] 

Добавлена 5 серия первого сезона
[Профиль]  [ЛС] 

LPPI ®

137546

Пост 29-Июл-2015 23:35 (спустя 5 дней)

[Q] 

Добавлена 6 серия первого сезона
[Профиль]  [ЛС] 

LPPI ®

137546

Пост 06-Авг-2015 08:50 (спустя 7 дней)

[Q] 

Добавлена 7 серия первого сезона
[Профиль]  [ЛС] 

kostua005

Шкипер

Пост 06-Авг-2015 12:00 (спустя 3 часа)

[Q] 

Не плохой сериал!!!
[Профиль]  [ЛС] 

LPPI ®

137546

Пост 12-Авг-2015 21:41 (спустя 6 дней)

[Q] 

Добавлена 8 серия первого сезона
[Профиль]  [ЛС] 

LPPI ®

137546

Пост 19-Авг-2015 20:25 (спустя 6 дней)

[Q] 

Добавлена 9 серия первого сезона
[Профиль]  [ЛС] 

LPPI ®

137546

Пост 26-Авг-2015 08:12 (спустя 6 дней)

[Q] 

Добавлена 10 серия первого сезона
[Профиль]  [ЛС] 
Показать сообщения:    
Ответить на тему

Текущее время: Сегодня 12:48

Часовой пояс: GMT + 4



Вы не можете начинать темы
Вы не можете отвечать на сообщения
Вы не можете редактировать свои сообщения
Вы не можете удалять свои сообщения
Вы не можете голосовать в опросах
Вы не можете прикреплять файлы к сообщениям
Вы не можете скачивать файлы

▼ Вниз